<?xml version="1.0" standalone="no"?>
<!DOCTYPE svg PUBLIC "-//W3C//DTD SVG 1.1//EN" "http://www.w3.org/Graphics/SVG/1.1/DTD/svg11.dtd" >
<svg xmlns="http://www.w3.org/2000/svg">
<metadata>
This is a custom SVG webfont generated by Font Squirrel.
Copyright   : Copyright 19901993 Bitstream Inc  All rights reserved
</metadata>
<defs>
<font id="AlternateGothic2BTRegular" horiz-adv-x="1024" >
<font-face units-per-em="2048" ascent="1638" descent="-410" />
<missing-glyph horiz-adv-x="416" />
<glyph unicode=" "  horiz-adv-x="416" />
<glyph unicode="&#x09;" horiz-adv-x="416" />
<glyph unicode="&#xa0;" horiz-adv-x="416" />
<glyph unicode="!" horiz-adv-x="440" d="M152 418l-48 1028h230l-47 -1028h-135zM113 0v227h213v-227h-213z" />
<glyph unicode="&#x22;" horiz-adv-x="643" d="M395 1436h164v-557h-164v557zM86 1436h164v-557h-164v557z" />
<glyph unicode="#" horiz-adv-x="1575" d="M709 852l-91 -254h256l91 254h-256zM735 1460h191l-154 -436h250l156 436h190l-154 -436h291l-59 -172h-293l-90 -252h309l-61 -172h-307l-156 -434h-191l156 434h-252l-158 -434h-190l156 434h-299l61 172h297l90 252h-315l61 172h316z" />
<glyph unicode="$" horiz-adv-x="831" d="M350 932v338q-40 -25 -58 -61.5t-18 -98.5q0 -49 18.5 -92.5t57.5 -85.5zM471 172q41 13 67.5 68t26.5 129q0 56 -24 108.5t-70 93.5v-399zM350 -31q-103 18 -174.5 73t-107.5 142l149 135q21 -54 52.5 -87.5t80.5 -57.5v479q-138 102 -204 208.5t-66 232.5 q0 141 75 246.5t195 132.5v176h121v-174q41 -5 73 -16.5t64 -33.5q59 -39 111 -114l-131 -133q-22 38 -51 64q-25 22 -66 35v-439q162 -118 228 -231q33 -56 50 -119.5t17 -137.5q0 -154 -81 -259.5t-214 -123.5v-172h-121v174z" />
<glyph unicode="%" horiz-adv-x="1061" d="M881 195v329q0 33 -19 55.5t-47 22.5q-27 0 -45 -21.5t-18 -54.5v-331q0 -39 18 -66q19 -25 45 -25q32 0 49 24t17 67zM1036 231q0 -125 -57 -193.5t-164 -68.5q-109 0 -165 68t-56 199v260q0 112 60.5 176.5t166.5 64.5q98 0 156.5 -66t58.5 -179v-261zM109 0l653 1446 h176l-653 -1446h-176zM307 932v332q0 34 -17 54.5t-46 20.5q-26 0 -47 -22q-19 -22 -19 -53v-332q0 -39 18.5 -63.5t47.5 -24.5t47 22q16 22 16 66zM465 969q0 -126 -57.5 -194t-163.5 -68q-108 0 -164.5 67.5t-56.5 198.5v260q0 115 59 178.5t166 63.5q98 0 157.5 -66.5 t59.5 -179.5v-260z" />
<glyph unicode="&#x26;" horiz-adv-x="903" d="M365 889q56 84 84 154.5t28 136.5q0 62 -23.5 102.5t-60.5 40.5q-38 0 -64 -49.5t-26 -128.5q0 -33 3 -62t11 -62q15 -60 48 -132zM315 522q-30 -49 -45.5 -97t-15.5 -91q0 -62 33 -100.5t88 -38.5q17 0 31 3t28 11q26 14 45 43q-33 40 -77 108q-37 63 -87 162zM610 88 q-50 -59 -113 -90t-139 -31q-136 0 -221.5 96.5t-85.5 249.5q0 101 41 196q21 50 52 100.5t79 109.5q-50 117 -75 217.5t-25 196.5q0 151 78 246.5t202 95.5q116 0 185 -81.5t69 -222.5q0 -94 -39.5 -189t-166.5 -271q33 -73 68 -136q32 -58 81 -137q22 43 44 107 q17 56 34 139l186 -49q-11 -94 -42 -181.5t-89 -185.5q22 -31 49 -51.5t62 -32.5v-217q-34 0 -63.5 8.5t-62.5 25.5q-57 30 -108 87z" />
<glyph unicode="'" horiz-adv-x="334" d="M86 1436h164v-557h-164v557z" />
<glyph unicode="(" horiz-adv-x="563" d="M537 -131l-142 -86q-146 215 -219.5 436.5t-73.5 448.5q0 209 60 414.5t176 392.5h192q-109 -179 -167 -382q-28 -99 -42 -201.5t-14 -213.5q0 -214 57.5 -419t172.5 -390z" />
<glyph unicode=")" horiz-adv-x="563" d="M27 -131q113 185 172 391q29 101 44 205.5t15 212.5q0 212 -56 412.5t-169 384.5h194q115 -184 174.5 -390t59.5 -417q0 -229 -72.5 -448.5t-220.5 -436.5z" />
<glyph unicode="*" horiz-adv-x="788" d="M393 1055l-127 -248l-129 96l197 197l-273 45l50 151l245 -127l-37 277h150l-37 -277l246 127l49 -151l-272 -45l196 -197l-129 -96z" />
<glyph unicode="+" horiz-adv-x="1706" d="M768 1221h170v-527h514v-166h-514v-528h-170v528h-514v166h514v527z" />
<glyph unicode="," horiz-adv-x="440" d="M115 0v227h213v-227l-115 -256h-98l73 256h-73z" />
<glyph unicode="-" horiz-adv-x="635" d="M80 457v151h475v-151h-475z" />
<glyph unicode="." horiz-adv-x="440" d="M115 0v227h213v-227h-213z" />
<glyph unicode="/" horiz-adv-x="500" d="M-154 -190l586 1665h162l-586 -1665h-162z" />
<glyph unicode="0" horiz-adv-x="831" d="M301 309q0 -60 32 -98q34 -37 87 -37q51 0 81.5 36.5t30.5 98.5v846q0 51 -32 83t-84 32q-50 0 -82.5 -32t-32.5 -81v-848zM84 1112q0 172 90 268.5t248 96.5q149 0 238.5 -100t89.5 -271v-741q0 -188 -87.5 -292t-246.5 -104q-162 0 -247 103t-85 299v741z" />
<glyph unicode="1" horiz-adv-x="530" d="M-10 1122v146q43 15 79.5 33t67.5 41q59 43 101 104h149v-1446h-221v1122h-176z" />
<glyph unicode="2" horiz-adv-x="809" d="M61 0v209q231 319 343 540.5t112 356.5q0 80 -27 127t-73 47q-59 0 -88 -45q-13 -22 -21 -62t-8 -93l-2 -54h-217v27q0 201 88.5 311.5t249.5 110.5q138 0 221.5 -94t83.5 -253q0 -157 -85 -349.5t-337 -569.5h404v-209h-644z" />
<glyph unicode="3" horiz-adv-x="762" d="M57 418h211v-60q0 -94 25.5 -138t79.5 -44q61 0 90 48.5t29 158.5q0 151 -41 208.5t-144 57.5h-28v203l17 1l17 1q83 0 120.5 51.5t37.5 171.5q0 101 -23 144q-21 45 -71 45q-53 0 -80 -37q-25 -38 -25 -121v-33q0 -14 2 -22h-211v12q0 193 83 300.5t231 107.5 q143 0 217 -103t74 -307q0 -125 -30 -199t-95 -112q80 -38 115.5 -115.5t35.5 -226.5q0 -214 -79 -327q-39 -56 -96 -84t-134 -28q-156 0 -242 108t-86 302v37z" />
<glyph unicode="4" horiz-adv-x="817" d="M422 543v528l-180 -528h180zM51 352v191l371 903h209v-903h135v-191h-135v-352h-209v352h-371z" />
<glyph unicode="5" horiz-adv-x="786" d="M84 403h199v-73q0 -82 29 -123t87 -41q48 0 75.5 36.5t27.5 106.5v369q0 63 -23 90q-21 29 -71 29q-42 0 -75 -30q-30 -30 -48 -87l-183 8l25 758h545l8 -209h-377l-18 -340q48 46 98.5 70t101.5 24q105 0 162.5 -79t57.5 -226v-367q0 -163 -86 -256.5t-234 -93.5 q-147 0 -224 99.5t-77 291.5v43z" />
<glyph unicode="6" horiz-adv-x="831" d="M309 608v-299q0 -59 33.5 -97t85.5 -38q51 0 81 36t30 99v281q0 53 -26 82.5t-71 29.5q-37 0 -70.5 -24t-62.5 -70zM758 365q0 -189 -88 -293q-44 -51 -105.5 -77t-142.5 -26q-162 0 -247 103t-85 299v741q0 170 90.5 267.5t249.5 97.5q150 0 239 -100.5t89 -270.5v-45 h-219v94q0 51 -32 83t-83 32q-50 0 -82.5 -31t-32.5 -82v-356q41 43 94.5 67.5t110.5 24.5q116 0 180 -73.5t64 -207.5v-247z" />
<glyph unicode="7" horiz-adv-x="649" d="M12 1237v209h606v-158l-270 -1288h-215l266 1237h-387z" />
<glyph unicode="8" horiz-adv-x="762" d="M385 879q50 0 74 46q22 49 22 162q0 122 -21.5 167.5t-78.5 45.5q-54 0 -78 -45q-22 -47 -22 -165q0 -121 23 -166t81 -45zM387 174q57 0 82 54t25 180q0 134 -24.5 187.5t-82.5 53.5q-63 0 -91 -47.5t-28 -169.5q0 -145 27 -201.5t92 -56.5zM203 770q-60 43 -90.5 124 t-30.5 204q0 184 77 280.5t224 96.5q144 0 220.5 -97t76.5 -278q0 -128 -28 -206t-91 -126q69 -36 105 -132.5t36 -246.5q0 -205 -81.5 -312.5t-237.5 -107.5q-161 0 -242.5 110.5t-81.5 328.5q0 71 8 125t27 101q36 88 109 136z" />
<glyph unicode="9" horiz-adv-x="831" d="M520 838v299q0 62 -32 97.5t-87 35.5q-53 0 -81.5 -38.5t-28.5 -109.5v-202q0 -84 27 -127t83 -43q40 0 69 22q29 20 50 66zM72 340v45h219v-96q0 -52 31 -84q33 -31 84 -31q49 0 81.5 32t32.5 83v356q-38 -41 -82 -61.5t-92 -20.5q-139 0 -211 112.5t-72 334.5 q0 233 86.5 350t258.5 117q161 0 246 -103t85 -299v-741q0 -170 -90.5 -267.5t-249.5 -97.5q-149 0 -238 100t-89 271z" />
<glyph unicode=":" horiz-adv-x="440" d="M115 0v227h213v-227h-213zM115 408v227h213v-227h-213z" />
<glyph unicode=";" horiz-adv-x="440" d="M115 408v227h213v-227h-213zM115 0v227h213v-227l-115 -256h-98l73 256h-73z" />
<glyph unicode="&#x3c;" horiz-adv-x="1706" d="M1442 1176v-185l-934 -381l934 -381v-182l-1178 483v160z" />
<glyph unicode="=" horiz-adv-x="1706" d="M254 487h1198v-165h-1198v165zM254 901h1198v-168h-1198v168z" />
<glyph unicode="&#x3e;" horiz-adv-x="1706" d="M264 1176l1178 -486v-160l-1178 -483v182l934 381l-934 381v185z" />
<glyph unicode="?" horiz-adv-x="631" d="M203 426l-1 29l-1 30q0 102 15 195.5t48 179.5q11 31 31 73t49 97q57 108 57 154q0 43 -23 69.5t-61 26.5q-37 0 -71 -37q-31 -36 -66 -117l-174 72q39 138 117 207.5t190 69.5q133 0 211 -75t78 -204q0 -112 -85.5 -262.5t-100.5 -190.5q-20 -49 -30.5 -111.5 t-10.5 -131.5v-45l1 -29h-173zM182 0v238h215v-238h-215z" />
<glyph unicode="@" horiz-adv-x="2048" d="M1174 283q-54 -86 -128 -127t-176 -41q-151 0 -232 87t-81 249q0 231 138 394t333 163q89 0 149.5 -34t98.5 -108l55 107h154l-148 -586l-2 -12l-6 -37q0 -38 27 -61t69 -23q50 0 107 30t106 85q36 37 63 80.5t47 96.5q38 103 38 216q0 252 -187 410.5t-489 158.5 q-139 0 -256 -30.5t-215 -94.5q-180 -112 -278.5 -290.5t-98.5 -395.5q0 -312 210 -499t558 -187q166 0 323.5 48.5t291.5 142.5l67 -99q-147 -111 -317 -169t-357 -58q-192 0 -350.5 48t-281.5 142q-154 117 -232 275q-38 80 -57 168t-19 190q0 166 51.5 314t153.5 272 q146 178 353 271.5t460 93.5q167 0 316 -45.5t254 -127.5q133 -103 198.5 -235.5t65.5 -300.5q0 -163 -65 -303t-185 -236q-69 -54 -150 -84q-43 -14 -83 -21t-85 -7q-105 0 -156.5 40.5t-51.5 125.5v4zM1233 707q-14 85 -62 130.5t-122 45.5q-125 0 -216.5 -128.5 t-91.5 -310.5q0 -97 45 -150.5t129 -53.5q89 0 162.5 66t100.5 173z" />
<glyph unicode="A" horiz-adv-x="791" d="M12 0l238 1446h291l237 -1446h-229l-45 313h-225l-48 -313h-219zM307 518h170l-76 604h-14z" />
<glyph unicode="B" horiz-adv-x="868" d="M336 844h90q59 0 95 52q16 25 25 61.5t9 84.5q0 102 -34.5 148.5t-112.5 46.5h-72v-393zM336 209h96q73 0 106 50.5t33 156.5q0 118 -37 168.5t-126 50.5h-72v-426zM115 0v1446h295q176 0 274 -99t98 -278q0 -110 -37.5 -189.5t-117.5 -140.5q88 -51 131 -137t43 -215 q0 -197 -87.5 -292t-269.5 -95h-329z" />
<glyph unicode="C" horiz-adv-x="850" d="M88 371v741q0 170 93.5 267.5t256.5 97.5q154 0 245 -100t91 -271v-139h-229v159q0 76 -29 113t-86 37t-86 -37.5t-29 -112.5v-807q0 -75 29 -113t86 -38t86 38t29 113v197h229v-151q0 -188 -89.5 -292t-254.5 -104q-167 0 -254.5 102.5t-87.5 299.5z" />
<glyph unicode="D" horiz-adv-x="881" d="M336 213h113q59 0 87.5 37t28.5 115v696q0 88 -42.5 130t-135.5 42h-51v-1020zM115 0v1446h317q182 0 271.5 -97t89.5 -300v-646q0 -209 -84 -306t-267 -97h-327z" />
<glyph unicode="E" horiz-adv-x="754" d="M115 0v1446h581v-209h-358v-379h258v-209h-258v-432h358v-217h-581z" />
<glyph unicode="F" horiz-adv-x="684" d="M115 0v1446h581v-209h-358v-379h258v-209h-258v-649h-223z" />
<glyph unicode="G" horiz-adv-x="852" d="M88 371v741q0 170 93.5 267.5t256.5 97.5q158 0 240 -94t82 -277v-133h-215v153q0 76 -29 113t-86 37t-86 -37.5t-29 -112.5v-807q0 -75 29 -113t86 -38t86 38t29 113v226h-135v184h350v-729h-107l-43 100q-36 -67 -88.5 -99t-126.5 -32q-149 0 -228 103t-79 299z" />
<glyph unicode="H" horiz-adv-x="897" d="M115 1446h221v-590h223v590h223v-1446h-223v647h-223v-647h-221v1446z" />
<glyph unicode="I" horiz-adv-x="451" d="M115 0v1446h227v-1446h-227z" />
<glyph unicode="J" horiz-adv-x="473" d="M-12 0v223l17 -2l28 -2q55 0 86 31t31 90v25v1081h223v-1063q0 -195 -64 -289t-196 -94h-125z" />
<glyph unicode="K" horiz-adv-x="840" d="M115 0v1446h223v-610q4 16 8 30.5t9 28t8 22t6 13.5l221 516h221l-248 -494l277 -952h-232l-188 727l-82 -164v-563h-223z" />
<glyph unicode="L" horiz-adv-x="692" d="M115 0v1446h221v-1237h346v-209h-567z" />
<glyph unicode="M" horiz-adv-x="1149" d="M115 0v1446h297l145 -801q8 -44 10.5 -60t2.5 -43q0 -22 2.5 -63t2.5 -51q0 24 1 50t4 53t5 42.5t11 69.5l139 803h301v-1446h-209v913q0 13 2 52.5t2 52.5l13 147l-13 -80q-7 -46 -13 -79.5t-9 -45.5l-182 -960h-111l-174 961l-22 127l-13 77l11 -139l4 -113v-913h-207z " />
<glyph unicode="N" horiz-adv-x="938" d="M115 0v1446h200l283 -864l19 -66l24 -88l-18 116l-7 79v823h209v-1446h-209l-272 799l-5 15q-27 82 -42 142l18 -127l7 -73v-756h-207z" />
<glyph unicode="O" horiz-adv-x="862" d="M545 319v807q0 76 -29 113t-86 37t-86 -37.5t-29 -112.5v-807q0 -75 29 -113t86 -38t86 38t29 113zM88 1112q0 170 93.5 267.5t256.5 97.5q154 0 245 -100t91 -271v-741q0 -188 -89.5 -292t-254.5 -104q-166 0 -254 102t-88 300v741z" />
<glyph unicode="P" horiz-adv-x="829" d="M336 795h88q78 0 107.5 47.5t29.5 181.5q0 124 -30.5 168.5t-114.5 44.5h-80v-442zM113 0v1446h327q182 0 265 -99.5t83 -318.5q0 -204 -80 -322t-219 -118h-153v-588h-223z" />
<glyph unicode="Q" horiz-adv-x="860" d="M545 319v807q0 76 -29 113t-86 37t-86 -37.5t-29 -112.5v-807q0 -75 29 -113t86 -38t86 38t29 113zM744 167q12 -22 31 -34q20 -10 50 -10h11v-221h-25q-78 0 -129 27t-84 89q-41 -23 -86.5 -36t-95.5 -13q-155 0 -241.5 105.5t-86.5 296.5v741q0 170 93.5 267.5 t256.5 97.5q154 0 245 -100t91 -271v-741q0 -72 -7 -115q-3 -26 -8 -43.5t-15 -39.5z" />
<glyph unicode="R" horiz-adv-x="854" d="M336 1237v-420h88q76 0 106.5 46.5t30.5 172.5q0 115 -32 157q-30 44 -113 44h-80zM336 608v-608h-223v1446h327q182 0 265 -99.5t83 -318.5q0 -134 -33 -218.5t-108 -137.5l164 -672h-231l-138 608h-106z" />
<glyph unicode="S" horiz-adv-x="803" d="M47 367l213 32q0 -52 11.5 -93t30 -68.5t44.5 -40.5t62 -13q61 0 99 39t38 101q0 112 -180 292l-21 21q-174 174 -225 269.5t-51 201.5q0 153 100.5 257.5t245.5 104.5q141 0 231 -97q48 -51 75.5 -116.5t27.5 -144.5l-218 -31q0 44 -9.5 80t-25.5 59q-27 42 -87 42 q-54 0 -86.5 -37t-32.5 -97q0 -125 210 -329l13 -13q153 -150 201.5 -245t48.5 -213q0 -158 -98 -259.5t-248 -101.5q-165 0 -264 106q-49 53 -77 128.5t-28 165.5z" />
<glyph unicode="T" horiz-adv-x="662" d="M-12 1237v209h686v-209h-232v-1237h-223v1237h-231z" />
<glyph unicode="U" horiz-adv-x="885" d="M98 1446h228v-1120q0 -63 32 -101q34 -37 86 -37t82.5 36.5t30.5 101.5v1120h227v-1081q0 -192 -88 -294t-254 -102t-255 103t-89 299v1075z" />
<glyph unicode="V" horiz-adv-x="786" d="M20 1446h218l133 -856q6 -40 12 -81.5t6 -73.5q0 -24 3 -72t3 -74v-26l9 178q0 40 5 79q1 4 11 70l129 856h219l-256 -1446h-233z" />
<glyph unicode="W" horiz-adv-x="1126" d="M12 1446h213l99 -857l10 -120l4 -107v-28q0 32 4 79q0 79 4 125t10 80l111 828h190l119 -856l11 -114l4 -142l2 42q0 78 6 151q2 28 10 91l92 828h211l-225 -1446h-187l-122 839l-11 115l-4 142l-11 -189q0 -35 -1.5 -54.5t-5.5 -40.5l-119 -812h-186z" />
<glyph unicode="X" horiz-adv-x="764" d="M-4 0l264 735l-260 711h231l136 -426h10l143 426h228l-252 -692l274 -754h-233l-146 471h-8l-158 -471h-229z" />
<glyph unicode="Y" horiz-adv-x="702" d="M-25 1446h226l145 -578h14l138 578h227l-260 -846v-600h-223v573z" />
<glyph unicode="Z" horiz-adv-x="774" d="M63 0v223l400 1000h-367v223h609v-209l-404 -1014h404v-223h-642z" />
<glyph unicode="[" horiz-adv-x="563" d="M141 -186v1661h355v-185h-154v-1290h154v-186h-355z" />
<glyph unicode="\" horiz-adv-x="500" d="M653 -190h-164l-585 1665h164z" />
<glyph unicode="]" horiz-adv-x="563" d="M422 -186h-352v186h153v1290h-153v185h352v-1661z" />
<glyph unicode="^" horiz-adv-x="2048" d="M915 1460h218l495 -561h-207l-397 397l-399 -397h-207z" />
<glyph unicode="_" d="M0 -311h1024v-172h-1024v172z" />
<glyph unicode="`" d="M467 1167l-188 222h251l99 -222h-162z" />
<glyph unicode="a" horiz-adv-x="729" d="M438 266v277q-104 -69 -146 -128q-20 -30 -30 -64.5t-10 -78.5q0 -49 15.5 -76.5t45.5 -27.5q36 0 69 26t56 72zM444 120q-46 -63 -104.5 -98.5t-118.5 -35.5q-83 0 -128.5 60.5t-45.5 174.5q0 147 83 250.5t308 224.5v115q0 49 -17 73.5t-50 24.5q-42 0 -66 -24t-24 -66 v-59h-201l-1 14l-1 14q0 134 84.5 220t214.5 86q134 0 200 -81.5t66 -252.5v-455q0 -46 2.5 -113t2.5 -74q0 -39 3.5 -66t10.5 -52h-199q-7 18 -13 49z" />
<glyph unicode="b" horiz-adv-x="741" d="M297 203q22 -24 46 -38q24 -11 48 -11q35 0 52.5 22.5t17.5 73.5v551q0 53 -21.5 81.5t-60.5 28.5q-23 0 -42 -11q-20 -9 -40 -32v-665zM96 0v1446h201v-465q38 47 84.5 73.5t91.5 26.5q92 0 142.5 -68.5t50.5 -199.5v-592q0 -115 -46 -175t-135 -60q-58 0 -104 23.5 t-84 72.5v-82h-201z" />
<glyph unicode="c" horiz-adv-x="729" d="M76 301v471q0 148 82.5 235t216.5 87q132 0 208 -83.5t76 -230.5v-84h-204v86q0 66 -20.5 95.5t-65.5 29.5q-46 0 -68 -29q-20 -29 -20 -96v-475q0 -85 19.5 -117t66.5 -32t67.5 27.5t20.5 121.5v82h204v-88q0 -163 -74.5 -246.5t-222.5 -83.5q-131 0 -208.5 88.5 t-77.5 241.5z" />
<glyph unicode="d" horiz-adv-x="741" d="M444 203v665q-21 22 -43 33.5t-41 11.5q-35 0 -57 -29.5t-22 -82.5v-551q0 -50 16.5 -72t52.5 -22q27 0 48.5 10.5t45.5 36.5zM444 84q-38 -49 -85.5 -73.5t-104.5 -24.5q-86 0 -132 60t-46 175v592q0 131 48.5 199.5t143.5 68.5q23 0 45 -6t46 -20q46 -24 85 -74v465 h199v-1446h-199v84z" />
<glyph unicode="e" horiz-adv-x="729" d="M281 674h174v108q0 66 -20.5 95.5t-65.5 29.5q-46 0 -68 -29q-20 -29 -20 -96v-108zM76 301v479q0 137 84.5 225.5t216.5 88.5q134 0 208 -81.5t74 -232.5v-272h-378v-201q0 -85 19.5 -117t66.5 -32t67.5 27.5t20.5 121.5v74h204v-80q0 -163 -74.5 -246.5t-222.5 -83.5 q-132 0 -209 88t-77 242z" />
<glyph unicode="f" horiz-adv-x="477" d="M123 0v901h-113v166h113v125q0 126 58 190t173 64h24t35 -3.5t56 -12.5v-174l-35 7l-18 3q-49 0 -71.5 -21.5t-22.5 -68.5v-109h127v-166h-127v-901h-199z" />
<glyph unicode="g" horiz-adv-x="707" d="M420 553v248q0 55 -21.5 81.5t-66.5 26.5q-43 0 -64.5 -26t-21.5 -82v-248q0 -54 21 -83q21 -26 65 -26q43 0 65.5 27.5t22.5 81.5zM303 -25q-40 -18 -58 -38.5t-18 -45.5q0 -33 41.5 -58.5t102.5 -25.5q78 0 127 25t49 62q0 42 -57.5 61.5t-186.5 19.5zM193 313 q-69 43 -101 100q-29 58 -29 152v213q0 150 71.5 233t201.5 83q70 0 125 -28.5t106 -90.5q21 48 58 74t92 32v-173l-24 3l-17 2q-26 0 -44 -10t-32 -31l1 -36l1 -35v-238q0 -138 -66 -212.5t-190 -74.5h-26q-15 3 -22 4l-5 1q-22 -16 -34.5 -34t-12.5 -34q0 -53 117 -53 q31 0 57.5 -2.5t54.5 -7.5q128 -18 190 -77t62 -163q0 -124 -98 -188t-287 -64q-157 0 -245.5 45.5t-88.5 124.5q0 24 12 51q6 12 13.5 23.5t19 23t28.5 23.5q9 6 22 14t26 14q25 12 57 25q-59 15 -91 47t-32 76q0 51 27.5 92.5t102.5 95.5z" />
<glyph unicode="h" horiz-adv-x="756" d="M96 0v1446h201v-496q54 63 113.5 97t113.5 34q70 0 105 -47t35 -141v-893h-199v805q0 49 -11.5 66.5t-41.5 17.5q-22 0 -54 -22t-61 -58v-809h-201z" />
<glyph unicode="i" horiz-adv-x="393" d="M96 1247v199h201v-199h-201zM96 0v1067h201v-1067h-201z" />
<glyph unicode="j" horiz-adv-x="403" d="M104 1247v199h199v-199h-199zM303 1067v-1149q0 -126 -58 -190t-173 -64h-36q-15 3 -27.5 4.5t-21.5 3.5t-28 9v172l30 -7l29 -2q38 0 62 23t24 55v1145h199z" />
<glyph unicode="k" horiz-adv-x="711" d="M96 0v1446h201v-770l182 391h213l-198 -358l211 -709h-201l-139 528l-68 -125v-403h-201z" />
<glyph unicode="l" horiz-adv-x="393" d="M96 0v1446h201v-1446h-201z" />
<glyph unicode="m" horiz-adv-x="1122" d="M96 0v1067h201v-111q51 63 107.5 94t115.5 31q57 0 92 -31q35 -29 50 -94q47 57 106.5 90t114.5 33q72 0 109.5 -45.5t37.5 -134.5v-899h-201v805q0 49 -11.5 66.5t-41.5 17.5q-22 0 -54 -23q-33 -21 -60 -57v-809h-185v805q0 49 -12.5 66.5t-44.5 17.5q-23 0 -57 -21 t-66 -59v-809h-201z" />
<glyph unicode="n" horiz-adv-x="756" d="M96 0v1067h201v-117q54 63 113.5 97t113.5 34q70 0 105 -47t35 -141v-893h-199v805q0 49 -11.5 66.5t-41.5 17.5q-22 0 -54 -22t-61 -58v-809h-201z" />
<glyph unicode="o" horiz-adv-x="727" d="M281 250q0 -42 21 -67t60 -25t63 24t24 68v581q0 33 -24.5 55.5t-62.5 22.5q-36 0 -58.5 -22t-22.5 -56v-581zM76 823q0 123 80 197t215 74q123 0 201.5 -77.5t78.5 -199.5v-551q0 -137 -77 -215t-212 -78q-129 0 -207.5 80.5t-78.5 216.5v553z" />
<glyph unicode="p" horiz-adv-x="741" d="M297 864v-665q21 -23 42 -34t40 -11q39 0 60.5 28.5t21.5 83.5v551q0 51 -16.5 72.5t-53.5 21.5q-11 0 -22 -1.5t-29.5 -10.5t-42.5 -35zM96 -336v1403h201v-84q38 48 84 73t104 25q86 0 133.5 -61t47.5 -176v-590q0 -131 -49 -199.5t-144 -68.5q-45 0 -90 25t-86 75 v-422h-201z" />
<glyph unicode="q" horiz-adv-x="741" d="M281 266q0 -55 20 -83.5t59 -28.5q20 0 41 10.5t43 34.5v665q-23 24 -45.5 35.5t-48.5 11.5q-35 0 -53 -22q-16 -22 -16 -72v-551zM76 254v590q0 113 45.5 175t132.5 62q56 0 103 -24t87 -74v84h199v-1403h-199v422q-39 -49 -85.5 -74.5t-90.5 -25.5q-93 0 -142.5 69 t-49.5 199z" />
<glyph unicode="r" horiz-adv-x="539" d="M96 0v1067h201v-145q38 79 91.5 118t119.5 39h20v-223l-30 10l-35 4q-76 0 -121 -46t-45 -126v-698h-201z" />
<glyph unicode="s" horiz-adv-x="686" d="M29 289l192 43q12 -93 43.5 -133.5t87.5 -40.5q42 0 67 26t25 68q0 82 -202 236l-5 4q-101 75 -143.5 147.5t-42.5 163.5q0 130 81 211q41 40 93 60t119 20q62 0 111 -18t88 -56.5t62 -89.5t23 -113l-188 -45q-10 67 -36.5 101t-69.5 34q-40 0 -63 -25.5t-23 -68.5 q0 -68 141 -181l59 -48q110 -92 151.5 -163t41.5 -159q0 -131 -82 -211t-215 -80q-126 0 -210.5 83.5t-104.5 234.5z" />
<glyph unicode="t" horiz-adv-x="545" d="M150 225v676h-123v166h123v307h198v-307h148v-166h-148v-657q0 -46 22.5 -69t65.5 -23l24 2l35 8l1 -174q-25 -8 -56 -13l-59 -4q-115 0 -173 63t-58 191z" />
<glyph unicode="u" horiz-adv-x="756" d="M659 1067v-1067h-198v117q-54 -65 -114.5 -99t-115.5 -34q-69 0 -104 48t-35 142v893h199v-819q0 -37 12 -54.5t41 -17.5q21 0 54 22t63 58v811h198z" />
<glyph unicode="v" horiz-adv-x="614" d="M0 1067h184l123 -657h10l101 657h196l-206 -1067h-183z" />
<glyph unicode="w" horiz-adv-x="940" d="M0 1067h190l80 -511q4 -27 8 -55.5t4 -59.5l9 -146q0 63 6.5 126.5t19.5 133.5l80 512h152l88 -512l18 -129q8 -70 9.5 -87t1.5 -44v43l3 111l9 106l78 512h184l-182 -1067h-174l-92 520l-12 95l-7 148q0 -35 -2.5 -66t-7.5 -77q0 -32 -4 -60.5t-6 -40.5l-78 -519h-176z " />
<glyph unicode="x" horiz-adv-x="621" d="M-4 0l203 557l-189 510h199l96 -287h10l95 287h204l-196 -506l203 -561h-195l-113 328h-8l-115 -328h-194z" />
<glyph unicode="y" horiz-adv-x="653" d="M18 1067h187l123 -684h8l100 684h199l-225 -1141q-27 -142 -94.5 -202t-196.5 -60l-43 1h-14h-11q-8 2 -12 2v190h37q85 0 120 38q19 19 30.5 51.5t11.5 78.5z" />
<glyph unicode="z" horiz-adv-x="635" d="M53 0v178l326 703h-301v186h508v-176l-312 -701h312v-190h-533z" />
<glyph unicode="{" d="M874 1477v-179l-24 1l-23 1q-107 0 -146.5 -41.5t-39.5 -173.5v-241q0 -155 -43.5 -220t-159.5 -94q113 -27 158 -92.5t45 -220.5v-240q0 -132 39.5 -174.5t148.5 -42.5l22 1l23 1v-176h-63q-101 0 -165.5 12t-106.5 37q-56 32 -79.5 95.5t-23.5 203.5v248q0 144 -52 203 t-179 59l-22 -1l-21 -1v179l21 -2l22 -1q126 0 178.5 59t52.5 202v247q0 146 22.5 206.5t80.5 94.5q41 26 107.5 38t182.5 12h45z" />
<glyph unicode="|" d="M424 1565h178v-2048h-178v2048z" />
<glyph unicode="}" d="M152 1477h45q113 0 179 -11.5t109 -38.5q56 -33 80 -95q11 -30 17 -81.5t6 -124.5v-247q0 -144 52 -202.5t179 -58.5l21 1l22 2v-179l-22 1l-21 1q-126 0 -178.5 -59.5t-52.5 -202.5v-248q0 -145 -22.5 -204.5t-80.5 -94.5q-41 -25 -107 -37t-181 -12h-45v176l23 -1 l22 -1q108 0 147 42t39 175v240q0 153 45 219t160 94q-113 27 -159 93t-46 221v241q0 132 -38 173.5t-146 41.5l-23 -1l-24 -1v179z" />
<glyph unicode="~" horiz-adv-x="1706" d="M1530 784v-184q-100 -69 -196 -105t-185 -36q-35 0 -49.5 1.5t-43.5 6.5q-46 9 -98 27l-76 26q-213 74 -319 74q-83 0 -175.5 -38t-209.5 -122v187q102 70 200 106.5t187 36.5q60 0 123.5 -12t170.5 -48l42 -15q166 -58 250 -58q85 0 177.5 37t201.5 116z" />
<glyph unicode="&#xa1;" horiz-adv-x="440" d="M152 1028h135l47 -1028h-230zM113 1446h213v-227h-213v227z" />
<glyph unicode="&#xa2;" horiz-adv-x="831" d="M125 492v479q0 121 58 198t171 107v244h123v-240q122 -28 177 -101.5t55 -207.5v-84h-205v86q0 65 -20.5 95t-65.5 30q-46 0 -68 -29q-20 -29 -20 -96v-477q0 -84 18.5 -116t67.5 -32q47 0 67.5 27.5t20.5 120.5v84h205v-88q0 -148 -56 -225t-176 -99v-244h-123v242 q-113 30 -171 113.5t-58 212.5z" />
<glyph unicode="&#xa3;" horiz-adv-x="831" d="M104 0v193q81 15 132 78t51 151q0 30 -6 66.5t-8.5 50t-12.5 49.5h-139v184h86q-22 55 -37 99t-28 94q-21 84 -21 149q0 156 90.5 258.5t224.5 102.5q161 0 247.5 -115t86.5 -332v-29l-221 1q0 76 -8 125.5t-23 83.5q-26 59 -84 59q-42 0 -66 -36t-24 -99 q0 -52 15 -131.5t57 -229.5h246v-184h-205v-7q8 -83 8 -114q0 -41 -4 -71t-16 -65q-18 -61 -62 -122h391v-209h-670z" />
<glyph unicode="&#xa4;" horiz-adv-x="1241" d="M623 1176q-120 0 -205.5 -86.5t-85.5 -204.5q0 -119 84 -204t207 -85q119 0 204.5 84.5t85.5 204.5q0 119 -85 205t-205 86zM168 1430l203 -203q53 40 116 61t134 21q69 0 133.5 -20.5t117.5 -61.5l203 203l94 -93l-204 -204q19 -26 33.5 -54.5t25.5 -62.5 q20 -63 20 -131q0 -39 -4 -68t-16 -65q-20 -63 -59 -115l204 -205l-94 -92l-203 205q-55 -40 -117.5 -61t-131.5 -21q-75 0 -137.5 21t-114.5 61l-203 -205l-92 92l203 205q-39 53 -60 115q-10 32 -15 63.5t-5 69.5q0 39 4 67t16 64q20 63 60 117l-203 204z" />
<glyph unicode="&#xa5;" horiz-adv-x="702" d="M-12 1446h213l141 -590h14l129 590h220l-158 -533h160v-90h-187l-39 -133h226v-90h-252v-600h-213v600h-248v90h221l-39 133h-182v90h153z" />
<glyph unicode="&#xa6;" d="M424 408h178v-758h-178v758zM424 1432h178v-758h-178v758z" />
<glyph unicode="&#xa7;" horiz-adv-x="885" d="M242 819q0 -37 32.5 -85t108.5 -124l15 -15q116 -116 169 -116q30 0 51 21.5t21 56.5q0 28 -20 61q-18 33 -74 95q-107 118 -152.5 152t-77.5 34q-30 0 -51.5 -22t-21.5 -58zM129 31l131 104q50 -59 89 -87t75 -28q44 0 74 27q28 28 28 74q0 35 -20.5 72.5t-89.5 111.5 l-191 201q-91 97 -126.5 162.5t-35.5 130.5q0 89 54.5 151t150.5 78q-51 63 -72.5 109.5t-21.5 97.5q0 105 74 172.5t188 67.5q94 0 166 -37.5t133 -118.5l-129 -98q-52 58 -86 78q-16 10 -33 16t-34 6q-42 0 -68.5 -28t-26.5 -70q0 -27 25 -65q27 -38 94 -105l172 -172 q91 -91 129.5 -163.5t38.5 -144.5q0 -94 -49.5 -147.5t-155.5 -77.5q51 -54 75 -108.5t24 -120.5q0 -120 -73.5 -190t-199.5 -70q-87 0 -168 44t-141 128z" />
<glyph unicode="&#xa8;" d="M555 1178v200h184v-200h-184zM285 1178v200h182v-200h-182z" />
<glyph unicode="&#xa9;" horiz-adv-x="1706" d="M1206 903h-166q-9 74 -60 114q-25 20 -56.5 30t-73.5 10q-98 0 -154.5 -86.5t-56.5 -239.5q0 -151 57.5 -234t163.5 -83q80 0 128.5 43.5t60.5 124.5h165q0 -65 -27.5 -120t-79.5 -97q-100 -82 -253 -82q-183 0 -290 119t-107 323q0 207 109.5 331t291.5 124 q148 0 243 -77q49 -39 77 -89.5t28 -110.5zM854 1362q-131 0 -243 -46t-201 -136.5t-138 -207t-49 -241.5q0 -126 48 -240.5t138 -203.5t204.5 -138t240.5 -49q124 0 238 47.5t211 141.5q89 88 135.5 201t46.5 241q0 131 -46.5 244t-135.5 202.5t-204.5 137t-244.5 47.5z M852 1470q152 0 286 -54.5t239.5 -161t160.5 -240.5t55 -283q0 -154 -55 -286q-27 -66 -66.5 -124.5t-91.5 -109.5q-107 -105 -243.5 -163t-284.5 -58q-76 0 -143 13t-137 43q-134 57 -240 162t-162.5 241t-56.5 282q0 143 57 279.5t162.5 243t236.5 161.5t283 55z" />
<glyph unicode="&#xaa;" horiz-adv-x="547" d="M330 887v194q-81 -49 -111.5 -90.5t-30.5 -99.5q0 -35 13 -54.5t35 -19.5q23 0 48.5 17.5t45.5 52.5zM334 784q-36 -45 -80 -69.5t-88 -24.5q-63 0 -97 43t-34 123q0 103 62.5 175t232.5 157v80q0 34 -14 51q-12 18 -37 18q-32 0 -50 -17t-18 -46v-41h-152v20 q0 93 63 153t161 60q101 0 150.5 -58t49.5 -175v-320l3 -128q0 -26 2.5 -46.5t7.5 -38.5l-148 1l-9 29z" />
<glyph unicode="&#xab;" horiz-adv-x="739" d="M76 530l145 318h172l-139 -318l139 -315h-172zM350 530l142 318h172l-140 -318l140 -315h-172z" />
<glyph unicode="&#xac;" horiz-adv-x="1706" d="M254 862h1198v-502h-166v336h-1032v166z" />
<glyph unicode="&#xad;" horiz-adv-x="635" d="M80 457v151h475v-151h-475z" />
<glyph unicode="&#xae;" horiz-adv-x="1706" d="M729 1047v-261h117q98 0 145 30.5t47 96.5q0 68 -48 101t-152 33h-109zM551 1159h319q172 0 261.5 -57t89.5 -168q0 -89 -48 -149.5t-137 -79.5l185 -375h-199l-164 346h-129v-346h-178v829zM854 1362q-130 0 -240.5 -45.5t-200.5 -136t-140 -208.5t-50 -241 q0 -65 11 -122t36 -117q46 -112 135 -201.5t205 -140t234 -50.5q131 0 247 47t209 138q87 84 136 197.5t49 238.5q0 133 -45.5 247t-136 205t-205.5 140t-244 49zM852 1470q155 0 288 -55.5t242 -165.5q101 -103 156 -236t55 -282q0 -154 -55.5 -288t-161.5 -236.5 t-242.5 -159.5t-281.5 -57q-146 0 -282 57t-241.5 164t-160.5 241t-55 279q0 146 57 283t166 246q103 103 234.5 156.5t281.5 53.5z" />
<glyph unicode="&#xaf;" d="M313 1212v131h398v-131h-398z" />
<glyph unicode="&#xb0;" horiz-adv-x="674" d="M338 1350q-76 0 -131 -54t-55 -131q0 -74 54.5 -130t131.5 -56q76 0 130 54t54 132q0 75 -53.5 130t-130.5 55zM338 1460q119 0 207 -87t88 -210q0 -119 -87 -207t-210 -88t-208 86t-85 209q0 125 86 211t209 86z" />
<glyph unicode="&#xb1;" horiz-adv-x="1706" d="M254 182h1198v-168h-1198v168zM768 1206h170v-334h514v-165h-514v-334h-170v334h-514v165h514v334z" />
<glyph unicode="&#xb2;" horiz-adv-x="535" d="M41 578v124q152 191 225.5 324t73.5 215q0 47 -17.5 76t-48.5 29q-39 0 -58 -28.5t-19 -92.5v-31h-144v14q0 120 58.5 187t164.5 67q91 0 146 -55.5t55 -151.5q0 -95 -57 -214q-30 -61 -83 -142.5t-138 -196.5h266v-124h-424z" />
<glyph unicode="&#xb3;" horiz-adv-x="504" d="M37 827h139v-34q0 -57 17 -83t53 -26q42 0 60 27.5t18 95.5q0 89 -27 124.5t-94 35.5h-19v123h23q54 0 79 32t25 103q0 56 -15 84t-48 28q-36 0 -52 -22t-16 -72v-35h-139v9q0 113 54.5 178t152.5 65q96 0 144 -60.5t48 -185.5q0 -77 -20 -120q-18 -43 -62 -66 q55 -24 78 -70.5t23 -134.5q0 -127 -53 -194.5t-152 -67.5q-102 0 -159.5 63.5t-57.5 182.5v20z" />
<glyph unicode="&#xb4;" d="M559 1167h-162l97 222h254z" />
<glyph unicode="&#xb5;" horiz-adv-x="1208" d="M205 1081h229l-125 -635l-9 -55l-3 -49q0 -97 46.5 -147t135.5 -50q121 0 193 88t112 293l109 555h225l-145 -739l-15 -82l-4 -51q0 -36 15 -51t53 -15h20q9 0 14 2l-32 -159q-28 -8 -69 -13l-81 -4q-74 0 -111.5 31.5t-37.5 93.5v15q-40 -66 -108 -104t-146 -38 q-42 0 -75.5 6t-62.5 20q-56 26 -97 83l-99 -506h-229z" />
<glyph unicode="&#xb6;" d="M969 1479v-99h-117v-1380h-129v1380h-168v-1380h-131v784q-83 0 -149.5 25.5t-119.5 75.5q-100 95 -100 245q0 158 107 253.5t284 95.5h523z" />
<glyph unicode="&#xb8;" d="M299 -240l67 -12l64 -4q37 0 59.5 14t22.5 37q0 30 -27.5 45t-83.5 15h-10l62 145h69l-35 -78h17q94 0 147.5 -33t53.5 -94q0 -63 -62 -97q-29 -16 -74.5 -25t-103.5 -9q-19 0 -39.5 1t-41.5 4q-19 0 -40 4t-45 10v77z" />
<glyph unicode="&#xb9;" horiz-adv-x="350" d="M-6 1251v86q58 19 96.5 45t67.5 64h98v-868h-147v673h-115z" />
<glyph unicode="&#xba;" horiz-adv-x="545" d="M211 874q0 -30 16 -46.5t45 -16.5q30 0 47 17t17 46v408q0 23 -17.5 39t-46.5 16q-25 0 -43 -15.5t-18 -39.5v-408zM57 1276q0 87 60.5 138.5t161.5 51.5q92 0 151 -54.5t59 -139.5v-385q0 -96 -57.5 -150.5t-159.5 -54.5q-98 0 -156.5 55.5t-58.5 151.5v387z" />
<glyph unicode="&#xbb;" horiz-adv-x="739" d="M664 530l-146 -315h-174l139 315l-139 318h174zM389 530l-141 -315h-172l139 315l-139 318h172z" />
<glyph unicode="&#xbc;" horiz-adv-x="1126" d="M877 303v297l-115 -297h115zM643 197v106l234 506h131v-506h86v-106h-86v-197h-131v197h-234zM57 0l654 1446h176l-654 -1446h-176zM-6 1264v82q52 15 91.5 39.5t64.5 58.5h94v-809h-140v629h-110z" />
<glyph unicode="&#xbd;" horiz-adv-x="1120" d="M649 0v117q145 178 216 302t71 199q0 46 -17 72.5t-47 26.5q-37 0 -55 -25q-9 -14 -13.5 -34.5t-4.5 -52.5l-2 -30h-135v15q0 111 55.5 173t156.5 62q87 0 139 -52q26 -26 39 -60t13 -80q0 -88 -52.5 -196t-211.5 -320h254v-117h-406zM57 0l654 1446h176l-654 -1446h-176 zM-6 1264v82q52 15 91.5 39.5t64.5 58.5h94v-809h-140v629h-110z" />
<glyph unicode="&#xbe;" horiz-adv-x="1272" d="M1022 303v297l-115 -297h115zM788 197v106l234 506h131v-506h86v-106h-86v-197h-131v197h-234zM203 0l653 1446h176l-653 -1446h-176zM37 868h133v-32q0 -53 15 -78t51 -25q37 0 55 27t18 90q0 84 -26 116q-24 33 -88 33h-19v113l10 1l11 1q53 0 76.5 29t23.5 96 q0 53 -14.5 78.5t-44.5 25.5q-34 0 -50 -20.5t-16 -67.5v-30h-131v6q0 109 52 169t145 60q89 0 136 -57q22 -28 34 -71.5t12 -100.5q0 -72 -18.5 -112.5t-59.5 -61.5q50 -22 73 -67.5t23 -125.5q0 -121 -50 -183.5t-146 -62.5q-95 0 -150 60t-55 170v20z" />
<glyph unicode="&#xbf;" horiz-adv-x="631" d="M428 1018l1 -30l1 -30q0 -104 -16 -198.5t-47 -175.5q-22 -58 -80 -168t-58 -156q0 -44 23.5 -71t60.5 -27q36 0 71 36q32 35 67 117l174 -69q-39 -138 -117 -207.5t-193 -69.5q-132 0 -209 75.5t-77 203.5q0 112 85 265t99 187q9 23 17.5 54.5t14 60.5t8.5 63.5t3 71.5 l-1 42l-1 26h174zM449 1444v-238h-216v238h216z" />
<glyph unicode="&#xc0;" horiz-adv-x="791" d="M12 0l238 1446h291l237 -1446h-229l-45 313h-225l-48 -313h-219zM307 518h170l-76 604h-14zM350 1519l-188 222h251l99 -222h-162z" />
<glyph unicode="&#xc1;" horiz-adv-x="791" d="M12 0l238 1446h291l237 -1446h-229l-45 313h-225l-48 -313h-219zM307 518h170l-76 604h-14zM442 1519h-162l97 222h254z" />
<glyph unicode="&#xc2;" horiz-adv-x="791" d="M12 0l238 1446h291l237 -1446h-229l-45 313h-225l-48 -313h-219zM307 518h170l-76 604h-14zM305 1519h-162l154 222h196l154 -222h-162l-90 109z" />
<glyph unicode="&#xc3;" horiz-adv-x="791" d="M12 0l238 1446h291l237 -1446h-229l-45 313h-225l-48 -313h-219zM307 518h170l-76 604h-14zM649 1732v-16q0 -87 -43 -136.5t-115 -49.5q-45 0 -108 30q-30 15 -51.5 23t-32.5 8q-23 0 -38 -15q-3 -4 -8 -14.5t-5 -25.5v-8h-107v16q0 85 42.5 134.5t115.5 49.5 q45 0 107.5 -30.5t84.5 -30.5t36.5 15.5t14.5 41.5v8h107z" />
<glyph unicode="&#xc4;" horiz-adv-x="791" d="M12 0l238 1446h291l237 -1446h-229l-45 313h-225l-48 -313h-219zM307 518h170l-76 604h-14zM438 1530v200h184v-200h-184zM168 1530v200h182v-200h-182z" />
<glyph unicode="&#xc5;" horiz-adv-x="791" d="M328 1671q0 -27 20 -47t47 -20q29 0 48.5 19.5t19.5 47.5q0 29 -20 48q-18 20 -48 20q-27 0 -47 -20t-20 -48zM217 1671q0 74 53 126t125 52q74 0 126 -52t52 -126t-52 -126t-126 -52t-126 51t-52 127zM12 0l238 1446h291l237 -1446h-229l-45 313h-225l-48 -313h-219z M307 518h170l-76 604h-14z" />
<glyph unicode="&#xc6;" horiz-adv-x="1143" d="M324 547h176v608h-15zM-61 0l448 1446h694v-209h-364v-379h266v-209h-266v-432h364v-217h-579v346h-232l-94 -346h-237z" />
<glyph unicode="&#xc7;" horiz-adv-x="850" d="M356 -25q-113 18 -182 96q-86 103 -86 300v741q0 170 93.5 267.5t256.5 97.5q154 0 245 -100t91 -271v-139h-229v159q0 76 -29 113t-86 37t-86 -37.5t-29 -112.5v-807q0 -75 29 -113t86 -38t86 38t29 113v197h229v-151q0 -188 -89.5 -292t-254.5 -104h-8l-21 -47h17 q94 0 147.5 -33t53.5 -94q0 -63 -62 -97q-29 -16 -74.5 -25t-103.5 -9q-19 0 -39.5 1t-41.5 4q-19 0 -40 4t-45 10v77l67 -12l64 -4q37 0 59.5 14t22.5 37q0 30 -27.5 45t-83.5 15h-10z" />
<glyph unicode="&#xc8;" horiz-adv-x="754" d="M115 0v1446h581v-209h-358v-379h258v-209h-258v-432h358v-217h-581zM365 1519l-188 222h251l99 -222h-162z" />
<glyph unicode="&#xc9;" horiz-adv-x="754" d="M115 0v1446h581v-209h-358v-379h258v-209h-258v-432h358v-217h-581zM457 1519h-162l97 222h254z" />
<glyph unicode="&#xca;" horiz-adv-x="754" d="M115 0v1446h581v-209h-358v-379h258v-209h-258v-432h358v-217h-581zM320 1519h-162l154 222h196l154 -222h-162l-90 109z" />
<glyph unicode="&#xcb;" horiz-adv-x="754" d="M115 0v1446h581v-209h-358v-379h258v-209h-258v-432h358v-217h-581zM453 1530v200h184v-200h-184zM183 1530v200h182v-200h-182z" />
<glyph unicode="&#xcc;" horiz-adv-x="451" d="M115 0v1446h227v-1446h-227zM180 1519l-188 222h251l99 -222h-162z" />
<glyph unicode="&#xcd;" horiz-adv-x="451" d="M115 0v1446h227v-1446h-227zM272 1519h-162l97 222h254z" />
<glyph unicode="&#xce;" horiz-adv-x="451" d="M115 0v1446h227v-1446h-227zM135 1519h-162l154 222h196l154 -222h-162l-90 109z" />
<glyph unicode="&#xcf;" horiz-adv-x="451" d="M115 0v1446h227v-1446h-227zM268 1530v200h184v-200h-184zM-2 1530v200h182v-200h-182z" />
<glyph unicode="&#xd0;" horiz-adv-x="852" d="M88 371v741q0 170 93.5 267.5t256.5 97.5q158 0 240 -94t82 -277v-133h-215v153q0 76 -29 113t-86 37t-86 -37.5t-29 -112.5v-807q0 -75 29 -113t86 -38t86 38t29 113v226h-135v184h350v-729h-107l-43 100q-36 -67 -88.5 -99t-126.5 -32q-149 0 -228 103t-79 299z M342 1741q0 -53 19.5 -76t64.5 -23t64.5 23t19.5 76h131v-13q0 -105 -54.5 -159t-160.5 -54q-104 0 -159.5 54t-55.5 159v13h131z" />
<glyph unicode="&#xd1;" horiz-adv-x="938" d="M115 0v1446h200l283 -864l19 -66l24 -88l-18 116l-7 79v823h209v-1446h-209l-272 799l-5 15q-27 82 -42 142l18 -127l7 -73v-756h-207zM737 1732v-16q0 -87 -43 -136.5t-115 -49.5q-45 0 -108 30q-30 15 -51.5 23t-32.5 8q-23 0 -38 -15q-3 -4 -8 -14.5t-5 -25.5v-8h-107 v16q0 85 42.5 134.5t115.5 49.5q45 0 107.5 -30.5t84.5 -30.5t36.5 15.5t14.5 41.5v8h107z" />
<glyph unicode="&#xd2;" horiz-adv-x="862" d="M545 319v807q0 76 -29 113t-86 37t-86 -37.5t-29 -112.5v-807q0 -75 29 -113t86 -38t86 38t29 113zM88 1112q0 170 93.5 267.5t256.5 97.5q154 0 245 -100t91 -271v-741q0 -188 -89.5 -292t-254.5 -104q-166 0 -254 102t-88 300v741zM387 1519l-188 222h251l99 -222h-162 z" />
<glyph unicode="&#xd3;" horiz-adv-x="862" d="M545 319v807q0 76 -29 113t-86 37t-86 -37.5t-29 -112.5v-807q0 -75 29 -113t86 -38t86 38t29 113zM88 1112q0 170 93.5 267.5t256.5 97.5q154 0 245 -100t91 -271v-741q0 -188 -89.5 -292t-254.5 -104q-166 0 -254 102t-88 300v741zM479 1519h-162l97 222h254z" />
<glyph unicode="&#xd4;" horiz-adv-x="862" d="M545 319v807q0 76 -29 113t-86 37t-86 -37.5t-29 -112.5v-807q0 -75 29 -113t86 -38t86 38t29 113zM88 1112q0 170 93.5 267.5t256.5 97.5q154 0 245 -100t91 -271v-741q0 -188 -89.5 -292t-254.5 -104q-166 0 -254 102t-88 300v741zM342 1519h-162l154 222h196l154 -222 h-162l-90 109z" />
<glyph unicode="&#xd5;" horiz-adv-x="862" d="M545 319v807q0 76 -29 113t-86 37t-86 -37.5t-29 -112.5v-807q0 -75 29 -113t86 -38t86 38t29 113zM88 1112q0 170 93.5 267.5t256.5 97.5q154 0 245 -100t91 -271v-741q0 -188 -89.5 -292t-254.5 -104q-166 0 -254 102t-88 300v741zM686 1732v-16q0 -87 -43 -136.5 t-115 -49.5q-45 0 -108 30q-30 15 -51.5 23t-32.5 8q-23 0 -38 -15q-3 -4 -8 -14.5t-5 -25.5v-8h-107v16q0 85 42.5 134.5t115.5 49.5q45 0 107.5 -30.5t84.5 -30.5t36.5 15.5t14.5 41.5v8h107z" />
<glyph unicode="&#xd6;" horiz-adv-x="862" d="M545 319v807q0 76 -29 113t-86 37t-86 -37.5t-29 -112.5v-807q0 -75 29 -113t86 -38t86 38t29 113zM88 1112q0 170 93.5 267.5t256.5 97.5q154 0 245 -100t91 -271v-741q0 -188 -89.5 -292t-254.5 -104q-166 0 -254 102t-88 300v741zM475 1530v200h184v-200h-184z M205 1530v200h182v-200h-182z" />
<glyph unicode="&#xd7;" horiz-adv-x="1706" d="M403 1188l459 -459l461 459l117 -117l-459 -461l459 -458l-117 -119l-461 461l-459 -461l-116 119l458 458l-458 461z" />
<glyph unicode="&#xd8;" horiz-adv-x="862" d="M555 297v582l-238 -652q20 -34 50 -51.5t67 -17.5q54 0 87.5 37.5t33.5 101.5zM307 1171v-602l236 652q-14 32 -44 49.5t-69 17.5q-52 0 -87.5 -32.5t-35.5 -84.5zM61 -31l66 172q-20 44 -29.5 100t-9.5 130v741q0 172 93 268.5t257 96.5q50 0 95.5 -12.5t87.5 -37.5 l16 48h162l-64 -175q10 -22 16.5 -43.5t11.5 -47.5t8 -52.5t3 -50.5v-741q0 -188 -89.5 -292t-254.5 -104q-59 0 -105 13q-25 6 -45.5 14.5t-43.5 23.5l-15 -51h-160z" />
<glyph unicode="&#xd9;" horiz-adv-x="885" d="M98 1446h228v-1120q0 -63 32 -101q34 -37 86 -37t82.5 36.5t30.5 101.5v1120h227v-1081q0 -192 -88 -294t-254 -102t-255 103t-89 299v1075zM397 1519l-188 222h251l99 -222h-162z" />
<glyph unicode="&#xda;" horiz-adv-x="885" d="M98 1446h228v-1120q0 -63 32 -101q34 -37 86 -37t82.5 36.5t30.5 101.5v1120h227v-1081q0 -192 -88 -294t-254 -102t-255 103t-89 299v1075zM489 1519h-162l97 222h254z" />
<glyph unicode="&#xdb;" horiz-adv-x="885" d="M98 1446h228v-1120q0 -63 32 -101q34 -37 86 -37t82.5 36.5t30.5 101.5v1120h227v-1081q0 -192 -88 -294t-254 -102t-255 103t-89 299v1075zM352 1519h-162l154 222h196l154 -222h-162l-90 109z" />
<glyph unicode="&#xdc;" horiz-adv-x="885" d="M98 1446h228v-1120q0 -63 32 -101q34 -37 86 -37t82.5 36.5t30.5 101.5v1120h227v-1081q0 -192 -88 -294t-254 -102t-255 103t-89 299v1075zM485 1530v200h184v-200h-184zM215 1530v200h182v-200h-182z" />
<glyph unicode="&#xdd;" horiz-adv-x="451" d="M115 0v1446h227v-1446h-227zM129 1526v208h192v-208h-192z" />
<glyph unicode="&#xde;" horiz-adv-x="803" d="M331 -25q-107 20 -179 98q-49 53 -77 128.5t-28 165.5l213 32q0 -52 11.5 -93t30 -68.5t44.5 -40.5t62 -13q61 0 99 39t38 101q0 112 -180 292l-21 21q-174 174 -225 269.5t-51 201.5q0 153 100.5 257.5t245.5 104.5q141 0 231 -97q48 -51 75.5 -116.5t27.5 -144.5 l-218 -31q0 44 -9.5 80t-25.5 59q-27 42 -87 42q-54 0 -86.5 -37t-32.5 -97q0 -125 210 -329l13 -13q153 -150 201.5 -245t48.5 -213q0 -158 -98 -259.5t-248 -101.5h-20l-20 -45h17q94 0 147.5 -33t53.5 -94q0 -63 -62 -97q-29 -16 -74.5 -25t-103.5 -9q-19 0 -39.5 1 t-41.5 4q-19 0 -40 4t-45 10v77l67 -12l64 -4q37 0 59.5 14t22.5 37q0 30 -27.5 45t-83.5 15h-10z" />
<glyph unicode="&#xdf;" horiz-adv-x="823" d="M-16 883v184h131v19v15q-2 13 -2 19v8q0 167 71 242.5t226 75.5q133 0 207.5 -69t74.5 -193q0 -77 -30 -126.5t-95 -78.5q100 -21 141.5 -81t41.5 -198v-366q0 -175 -59.5 -261.5t-180.5 -86.5q-21 0 -36.5 2t-37.5 9q-38 10 -76 32l1 155l40 -20q18 -6 31 -6q57 0 88 37 t31 108v436q0 79 -29 111.5t-98 32.5h-64v184h60q33 0 57.5 28.5t24.5 69.5q0 51 -26 80t-70 29q-45 0 -69 -27t-24 -78v-1169h-198v883h-131z" />
<glyph unicode="&#xe0;" horiz-adv-x="729" d="M438 266v277q-104 -69 -146 -128q-20 -30 -30 -64.5t-10 -78.5q0 -49 15.5 -76.5t45.5 -27.5q36 0 69 26t56 72zM444 120q-46 -63 -104.5 -98.5t-118.5 -35.5q-83 0 -128.5 60.5t-45.5 174.5q0 147 83 250.5t308 224.5v115q0 49 -17 73.5t-50 24.5q-42 0 -66 -24t-24 -66 v-59h-201l-1 14l-1 14q0 134 84.5 220t214.5 86q134 0 200 -81.5t66 -252.5v-455q0 -46 2.5 -113t2.5 -74q0 -39 3.5 -66t10.5 -52h-199q-7 18 -13 49zM336 1167l-188 222h251l99 -222h-162z" />
<glyph unicode="&#xe1;" horiz-adv-x="729" d="M438 266v277q-104 -69 -146 -128q-20 -30 -30 -64.5t-10 -78.5q0 -49 15.5 -76.5t45.5 -27.5q36 0 69 26t56 72zM444 120q-46 -63 -104.5 -98.5t-118.5 -35.5q-83 0 -128.5 60.5t-45.5 174.5q0 147 83 250.5t308 224.5v115q0 49 -17 73.5t-50 24.5q-42 0 -66 -24t-24 -66 v-59h-201l-1 14l-1 14q0 134 84.5 220t214.5 86q134 0 200 -81.5t66 -252.5v-455q0 -46 2.5 -113t2.5 -74q0 -39 3.5 -66t10.5 -52h-199q-7 18 -13 49zM428 1167h-162l97 222h254z" />
<glyph unicode="&#xe2;" horiz-adv-x="729" d="M438 266v277q-104 -69 -146 -128q-20 -30 -30 -64.5t-10 -78.5q0 -49 15.5 -76.5t45.5 -27.5q36 0 69 26t56 72zM444 120q-46 -63 -104.5 -98.5t-118.5 -35.5q-83 0 -128.5 60.5t-45.5 174.5q0 147 83 250.5t308 224.5v115q0 49 -17 73.5t-50 24.5q-42 0 -66 -24t-24 -66 v-59h-201l-1 14l-1 14q0 134 84.5 220t214.5 86q134 0 200 -81.5t66 -252.5v-455q0 -46 2.5 -113t2.5 -74q0 -39 3.5 -66t10.5 -52h-199q-7 18 -13 49zM291 1167h-162l154 222h196l154 -222h-162l-90 109z" />
<glyph unicode="&#xe3;" horiz-adv-x="729" d="M438 266v277q-104 -69 -146 -128q-20 -30 -30 -64.5t-10 -78.5q0 -49 15.5 -76.5t45.5 -27.5q36 0 69 26t56 72zM444 120q-46 -63 -104.5 -98.5t-118.5 -35.5q-83 0 -128.5 60.5t-45.5 174.5q0 147 83 250.5t308 224.5v115q0 49 -17 73.5t-50 24.5q-42 0 -66 -24t-24 -66 v-59h-201l-1 14l-1 14q0 134 84.5 220t214.5 86q134 0 200 -81.5t66 -252.5v-455q0 -46 2.5 -113t2.5 -74q0 -39 3.5 -66t10.5 -52h-199q-7 18 -13 49zM635 1380v-16q0 -87 -43 -136.5t-115 -49.5q-45 0 -108 30q-30 15 -51.5 23t-32.5 8q-23 0 -38 -15q-3 -4 -8 -14.5 t-5 -25.5v-8h-107v16q0 85 42.5 134.5t115.5 49.5q45 0 107.5 -30.5t84.5 -30.5t36.5 15.5t14.5 41.5v8h107z" />
<glyph unicode="&#xe4;" horiz-adv-x="729" d="M438 266v277q-104 -69 -146 -128q-20 -30 -30 -64.5t-10 -78.5q0 -49 15.5 -76.5t45.5 -27.5q36 0 69 26t56 72zM444 120q-46 -63 -104.5 -98.5t-118.5 -35.5q-83 0 -128.5 60.5t-45.5 174.5q0 147 83 250.5t308 224.5v115q0 49 -17 73.5t-50 24.5q-42 0 -66 -24t-24 -66 v-59h-201l-1 14l-1 14q0 134 84.5 220t214.5 86q134 0 200 -81.5t66 -252.5v-455q0 -46 2.5 -113t2.5 -74q0 -39 3.5 -66t10.5 -52h-199q-7 18 -13 49zM424 1178v200h184v-200h-184zM154 1178v200h182v-200h-182z" />
<glyph unicode="&#xe5;" horiz-adv-x="729" d="M319 1317q0 -27 20.5 -46.5t47.5 -19.5q29 0 48.5 18.5t19.5 47.5t-19.5 48t-48.5 19q-28 0 -48 -20q-20 -18 -20 -47zM209 1319q0 74 52 126t126 52t126 -52t52 -126q0 -75 -51.5 -126.5t-126.5 -51.5q-74 0 -126 51t-52 127zM438 266v277q-104 -69 -146 -128 q-20 -30 -30 -64.5t-10 -78.5q0 -49 15.5 -76.5t45.5 -27.5q36 0 69 26t56 72zM444 120q-46 -63 -104.5 -98.5t-118.5 -35.5q-83 0 -128.5 60.5t-45.5 174.5q0 147 83 250.5t308 224.5v115q0 49 -17 73.5t-50 24.5q-42 0 -66 -24t-24 -66v-59h-201l-1 14l-1 14 q0 134 84.5 220t214.5 86q134 0 200 -81.5t66 -252.5v-455q0 -46 2.5 -113t2.5 -74q0 -39 3.5 -66t10.5 -52h-199q-7 18 -13 49z" />
<glyph unicode="&#xe6;" horiz-adv-x="1096" d="M647 674h176v108q0 65 -21 95t-67 30q-45 0 -66.5 -29t-21.5 -96v-108zM444 266v277q-109 -73 -148.5 -130.5t-39.5 -138.5q0 -50 15 -78t44 -28q39 0 72.5 24.5t56.5 73.5zM559 1032q21 15 41.5 26.5t45.5 20.5q45 15 95 15q136 0 210.5 -82t74.5 -232v-272h-379v-201 q0 -83 20.5 -116t67.5 -33q49 0 69 27q19 29 19 122v74h203v-80q0 -163 -72.5 -246.5t-214.5 -83.5q-87 0 -147.5 37t-114.5 125q-63 -70 -128.5 -108.5t-123.5 -38.5q-80 0 -127 62t-47 173q0 148 83 251t310 224v115q0 45 -17.5 70.5t-51.5 25.5q-51 0 -72.5 -33.5 t-21.5 -113.5h-201v4q0 147 84 238.5t217 91.5q50 0 94 -15.5t84 -46.5z" />
<glyph unicode="&#xe7;" horiz-adv-x="729" d="M362 -29l-22 -49h17q94 0 147.5 -33t53.5 -94q0 -63 -62 -97q-29 -16 -74.5 -25t-103.5 -9q-19 0 -39.5 1t-41.5 4q-19 0 -40 4t-45 10v77l67 -12l64 -4q37 0 59.5 14t22.5 37q0 30 -27.5 45t-83.5 15h-10l52 122q-85 16 -143 82q-77 89 -77 242v471q0 148 82.5 235 t216.5 87q132 0 208 -83.5t76 -230.5v-84h-204v86q0 66 -20.5 95.5t-65.5 29.5q-46 0 -68 -29q-20 -29 -20 -96v-475q0 -85 19.5 -117t66.5 -32t67.5 27.5t20.5 121.5v82h204v-88q0 -163 -74.5 -246.5t-222.5 -83.5z" />
<glyph unicode="&#xe8;" horiz-adv-x="729" d="M281 674h174v108q0 66 -20.5 95.5t-65.5 29.5q-46 0 -68 -29q-20 -29 -20 -96v-108zM76 301v479q0 137 84.5 225.5t216.5 88.5q134 0 208 -81.5t74 -232.5v-272h-378v-201q0 -85 19.5 -117t66.5 -32t67.5 27.5t20.5 121.5v74h204v-80q0 -163 -74.5 -246.5t-222.5 -83.5 q-132 0 -209 88t-77 242zM332 1167l-188 222h251l99 -222h-162z" />
<glyph unicode="&#xe9;" horiz-adv-x="729" d="M281 674h174v108q0 66 -20.5 95.5t-65.5 29.5q-46 0 -68 -29q-20 -29 -20 -96v-108zM76 301v479q0 137 84.5 225.5t216.5 88.5q134 0 208 -81.5t74 -232.5v-272h-378v-201q0 -85 19.5 -117t66.5 -32t67.5 27.5t20.5 121.5v74h204v-80q0 -163 -74.5 -246.5t-222.5 -83.5 q-132 0 -209 88t-77 242zM424 1167h-162l97 222h254z" />
<glyph unicode="&#xea;" horiz-adv-x="729" d="M281 674h174v108q0 66 -20.5 95.5t-65.5 29.5q-46 0 -68 -29q-20 -29 -20 -96v-108zM76 301v479q0 137 84.5 225.5t216.5 88.5q134 0 208 -81.5t74 -232.5v-272h-378v-201q0 -85 19.5 -117t66.5 -32t67.5 27.5t20.5 121.5v74h204v-80q0 -163 -74.5 -246.5t-222.5 -83.5 q-132 0 -209 88t-77 242zM287 1167h-162l154 222h196l154 -222h-162l-90 109z" />
<glyph unicode="&#xeb;" horiz-adv-x="729" d="M281 674h174v108q0 66 -20.5 95.5t-65.5 29.5q-46 0 -68 -29q-20 -29 -20 -96v-108zM76 301v479q0 137 84.5 225.5t216.5 88.5q134 0 208 -81.5t74 -232.5v-272h-378v-201q0 -85 19.5 -117t66.5 -32t67.5 27.5t20.5 121.5v74h204v-80q0 -163 -74.5 -246.5t-222.5 -83.5 q-132 0 -209 88t-77 242zM420 1178v200h184v-200h-184zM150 1178v200h182v-200h-182z" />
<glyph unicode="&#xec;" horiz-adv-x="393" d="M96 0v1067h201v-1067h-201zM152 1167l-188 222h251l99 -222h-162z" />
<glyph unicode="&#xed;" horiz-adv-x="393" d="M96 0v1067h201v-1067h-201zM244 1167h-162l97 222h254z" />
<glyph unicode="&#xee;" horiz-adv-x="393" d="M96 0v1067h201v-1067h-201zM107 1167h-162l154 222h196l154 -222h-162l-90 109z" />
<glyph unicode="&#xef;" horiz-adv-x="393" d="M96 0v1067h201v-1067h-201zM240 1178v200h184v-200h-184zM-30 1178v200h182v-200h-182z" />
<glyph unicode="&#xf0;" horiz-adv-x="707" d="M420 553v248q0 55 -21.5 81.5t-66.5 26.5q-43 0 -64.5 -26t-21.5 -82v-248q0 -54 21 -83q21 -26 65 -26q43 0 65.5 27.5t22.5 81.5zM303 -25q-40 -18 -58 -38.5t-18 -45.5q0 -33 41.5 -58.5t102.5 -25.5q78 0 127 25t49 62q0 42 -57.5 61.5t-186.5 19.5zM193 313 q-69 43 -101 100q-29 58 -29 152v213q0 150 71.5 233t201.5 83q70 0 125 -28.5t106 -90.5q21 48 58 74t92 32v-173l-24 3l-17 2q-26 0 -44 -10t-32 -31l1 -36l1 -35v-238q0 -138 -66 -212.5t-190 -74.5h-26q-15 3 -22 4l-5 1q-22 -16 -34.5 -34t-12.5 -34q0 -53 117 -53 q31 0 57.5 -2.5t54.5 -7.5q128 -18 190 -77t62 -163q0 -124 -98 -188t-287 -64q-157 0 -245.5 45.5t-88.5 124.5q0 24 12 51q6 12 13.5 23.5t19 23t28.5 23.5q9 6 22 14t26 14q25 12 57 25q-59 15 -91 47t-32 76q0 51 27.5 92.5t102.5 95.5zM270 1389q0 -53 19.5 -76 t64.5 -23t64.5 23t19.5 76h131v-13q0 -105 -54.5 -159t-160.5 -54q-104 0 -159.5 54t-55.5 159v13h131z" />
<glyph unicode="&#xf1;" horiz-adv-x="756" d="M96 0v1067h201v-117q54 63 113.5 97t113.5 34q70 0 105 -47t35 -141v-893h-199v805q0 49 -11.5 66.5t-41.5 17.5q-22 0 -54 -22t-61 -58v-809h-201zM645 1380v-16q0 -87 -43 -136.5t-115 -49.5q-45 0 -108 30q-30 15 -51.5 23t-32.5 8q-23 0 -38 -15q-3 -4 -8 -14.5 t-5 -25.5v-8h-107v16q0 85 42.5 134.5t115.5 49.5q45 0 107.5 -30.5t84.5 -30.5t36.5 15.5t14.5 41.5v8h107z" />
<glyph unicode="&#xf2;" horiz-adv-x="727" d="M281 250q0 -42 21 -67t60 -25t63 24t24 68v581q0 33 -24.5 55.5t-62.5 22.5q-36 0 -58.5 -22t-22.5 -56v-581zM76 823q0 123 80 197t215 74q123 0 201.5 -77.5t78.5 -199.5v-551q0 -137 -77 -215t-212 -78q-129 0 -207.5 80.5t-78.5 216.5v553zM320 1167l-188 222h251 l99 -222h-162z" />
<glyph unicode="&#xf3;" horiz-adv-x="727" d="M281 250q0 -42 21 -67t60 -25t63 24t24 68v581q0 33 -24.5 55.5t-62.5 22.5q-36 0 -58.5 -22t-22.5 -56v-581zM76 823q0 123 80 197t215 74q123 0 201.5 -77.5t78.5 -199.5v-551q0 -137 -77 -215t-212 -78q-129 0 -207.5 80.5t-78.5 216.5v553zM412 1167h-162l97 222h254 z" />
<glyph unicode="&#xf4;" horiz-adv-x="727" d="M281 250q0 -42 21 -67t60 -25t63 24t24 68v581q0 33 -24.5 55.5t-62.5 22.5q-36 0 -58.5 -22t-22.5 -56v-581zM76 823q0 123 80 197t215 74q123 0 201.5 -77.5t78.5 -199.5v-551q0 -137 -77 -215t-212 -78q-129 0 -207.5 80.5t-78.5 216.5v553zM275 1167h-162l154 222 h196l154 -222h-162l-90 109z" />
<glyph unicode="&#xf5;" horiz-adv-x="727" d="M281 250q0 -42 21 -67t60 -25t63 24t24 68v581q0 33 -24.5 55.5t-62.5 22.5q-36 0 -58.5 -22t-22.5 -56v-581zM76 823q0 123 80 197t215 74q123 0 201.5 -77.5t78.5 -199.5v-551q0 -137 -77 -215t-212 -78q-129 0 -207.5 80.5t-78.5 216.5v553zM619 1380v-16 q0 -87 -43 -136.5t-115 -49.5q-45 0 -108 30q-30 15 -51.5 23t-32.5 8q-23 0 -38 -15q-3 -4 -8 -14.5t-5 -25.5v-8h-107v16q0 85 42.5 134.5t115.5 49.5q45 0 107.5 -30.5t84.5 -30.5t36.5 15.5t14.5 41.5v8h107z" />
<glyph unicode="&#xf6;" horiz-adv-x="727" d="M281 250q0 -42 21 -67t60 -25t63 24t24 68v581q0 33 -24.5 55.5t-62.5 22.5q-36 0 -58.5 -22t-22.5 -56v-581zM76 823q0 123 80 197t215 74q123 0 201.5 -77.5t78.5 -199.5v-551q0 -137 -77 -215t-212 -78q-129 0 -207.5 80.5t-78.5 216.5v553zM408 1178v200h184v-200 h-184zM138 1178v200h182v-200h-182z" />
<glyph unicode="&#xf7;" horiz-adv-x="1706" d="M854 367q57 0 97 -40.5t40 -97.5q0 -56 -39.5 -95.5t-97.5 -39.5q-56 0 -96.5 39t-40.5 96t40.5 97.5t96.5 40.5zM254 694h1198v-166h-1198v166zM854 1128q57 0 97 -41.5t40 -97.5t-39.5 -95.5t-97.5 -39.5q-56 0 -96.5 39t-40.5 96t40.5 98t96.5 41z" />
<glyph unicode="&#xf8;" horiz-adv-x="727" d="M651 246q0 -123 -79.5 -198t-213.5 -75q-43 0 -79 10q-20 5 -35.5 11t-34.5 18l-27 -59h-139l68 158q-15 21 -25 58t-10 81v573q0 123 80 197t215 74q43 0 79 -9t68 -28l19 39h139l-60 -140q15 -20 25 -58t10 -81v-571zM453 602l-170 -401q6 -23 28 -38q23 -13 54 -13 q36 0 62 22.5t26 56.5v373zM274 465l172 401q-6 26 -28.5 40t-52.5 14q-36 0 -65 -24q-26 -24 -26 -58v-373z" />
<glyph unicode="&#xf9;" horiz-adv-x="756" d="M659 1067v-1067h-198v117q-54 -65 -114.5 -99t-115.5 -34q-69 0 -104 48t-35 142v893h199v-819q0 -37 12 -54.5t41 -17.5q21 0 54 22t63 58v811h198zM334 1167l-188 222h251l99 -222h-162z" />
<glyph unicode="&#xfa;" horiz-adv-x="756" d="M659 1067v-1067h-198v117q-54 -65 -114.5 -99t-115.5 -34q-69 0 -104 48t-35 142v893h199v-819q0 -37 12 -54.5t41 -17.5q21 0 54 22t63 58v811h198zM426 1167h-162l97 222h254z" />
<glyph unicode="&#xfb;" horiz-adv-x="756" d="M659 1067v-1067h-198v117q-54 -65 -114.5 -99t-115.5 -34q-69 0 -104 48t-35 142v893h199v-819q0 -37 12 -54.5t41 -17.5q21 0 54 22t63 58v811h198zM289 1167h-162l154 222h196l154 -222h-162l-90 109z" />
<glyph unicode="&#xfc;" horiz-adv-x="756" d="M659 1067v-1067h-198v117q-54 -65 -114.5 -99t-115.5 -34q-69 0 -104 48t-35 142v893h199v-819q0 -37 12 -54.5t41 -17.5q21 0 54 22t63 58v811h198zM422 1178v200h184v-200h-184zM152 1178v200h182v-200h-182z" />
<glyph unicode="&#xfd;" horiz-adv-x="393" d="M96 0v1067h201v-1067h-201z" />
<glyph unicode="&#xfe;" horiz-adv-x="686" d="M275 -22q-81 16 -143 77q-83 83 -103 234l192 43q12 -93 43.5 -133.5t87.5 -40.5q42 0 67 26t25 68q0 82 -202 236l-5 4q-101 75 -143.5 147.5t-42.5 163.5q0 130 81 211q41 40 93 60t119 20q62 0 111 -18t88 -56.5t62 -89.5t23 -113l-188 -45q-10 67 -36.5 101t-69.5 34 q-40 0 -63 -25.5t-23 -68.5q0 -68 141 -181l59 -48q110 -92 151.5 -163t41.5 -159q0 -131 -82 -211t-215 -80l-25 -49h17q94 0 147.5 -33t53.5 -94q0 -63 -62 -97q-29 -16 -74.5 -25t-103.5 -9q-19 0 -39.5 1t-41.5 4q-19 0 -40 4t-45 10v77l67 -12l64 -4q37 0 59.5 14 t22.5 37q0 30 -27.5 45t-83.5 15h-10z" />
<glyph unicode="&#xff;" horiz-adv-x="653" d="M18 1067h187l123 -684h8l100 684h199l-225 -1141q-27 -142 -94.5 -202t-196.5 -60l-43 1h-14h-11q-8 2 -12 2v190h37q85 0 120 38q19 19 30.5 51.5t11.5 78.5zM371 1178v200h184v-200h-184zM101 1178v200h182v-200h-182z" />
<glyph unicode="&#x106;" horiz-adv-x="850" d="M88 371v741q0 170 93.5 267.5t256.5 97.5q154 0 245 -100t91 -271v-139h-229v159q0 76 -29 113t-86 37t-86 -37.5t-29 -112.5v-807q0 -75 29 -113t86 -38t86 38t29 113v197h229v-151q0 -188 -89.5 -292t-254.5 -104q-167 0 -254.5 102.5t-87.5 299.5zM473 1519h-162 l97 222h254z" />
<glyph unicode="&#x107;" horiz-adv-x="729" d="M76 301v471q0 148 82.5 235t216.5 87q132 0 208 -83.5t76 -230.5v-84h-204v86q0 66 -20.5 95.5t-65.5 29.5q-46 0 -68 -29q-20 -29 -20 -96v-475q0 -85 19.5 -117t66.5 -32t67.5 27.5t20.5 121.5v82h204v-88q0 -163 -74.5 -246.5t-222.5 -83.5q-131 0 -208.5 88.5 t-77.5 241.5zM424 1167h-162l97 222h254z" />
<glyph unicode="&#x10c;" horiz-adv-x="850" d="M88 371v741q0 170 93.5 267.5t256.5 97.5q154 0 245 -100t91 -271v-139h-229v159q0 76 -29 113t-86 37t-86 -37.5t-29 -112.5v-807q0 -75 29 -113t86 -38t86 38t29 113v197h229v-151q0 -188 -89.5 -292t-254.5 -104q-167 0 -254.5 102.5t-87.5 299.5zM516 1741h162 l-154 -222h-196l-154 222h162l90 -109z" />
<glyph unicode="&#x10d;" horiz-adv-x="729" d="M76 301v471q0 148 82.5 235t216.5 87q132 0 208 -83.5t76 -230.5v-84h-204v86q0 66 -20.5 95.5t-65.5 29.5q-46 0 -68 -29q-20 -29 -20 -96v-475q0 -85 19.5 -117t66.5 -32t67.5 27.5t20.5 121.5v82h204v-88q0 -163 -74.5 -246.5t-222.5 -83.5q-131 0 -208.5 88.5 t-77.5 241.5zM467 1389h162l-154 -222h-196l-154 222h162l90 -109z" />
<glyph unicode="&#x111;" horiz-adv-x="750" d="M444 203v665q-21 22 -43 33.5t-41 11.5q-35 0 -57 -29.5t-22 -82.5v-551q0 -50 16.5 -72t52.5 -22q27 0 48.5 10.5t45.5 36.5zM444 84q-38 -49 -85.5 -73.5t-104.5 -24.5q-86 0 -132 60t-46 175v592q0 131 48.5 199.5t143.5 68.5q23 0 45 -6t46 -20q46 -24 85 -74v236 h-184v94h184v135h199v-135h98v-94h-98v-1217h-199v84z" />
<glyph unicode="&#x11e;" horiz-adv-x="852" d="M88 371v741q0 170 93.5 267.5t256.5 97.5q158 0 240 -94t82 -277v-133h-215v153q0 76 -29 113t-86 37t-86 -37.5t-29 -112.5v-807q0 -75 29 -113t86 -38t86 38t29 113v226h-135v184h350v-729h-107l-43 100q-36 -67 -88.5 -99t-126.5 -32q-149 0 -228 103t-79 299z M342 1741q0 -53 19.5 -76t64.5 -23t64.5 23t19.5 76h131v-13q0 -105 -54.5 -159t-160.5 -54q-104 0 -159.5 54t-55.5 159v13h131z" />
<glyph unicode="&#x11f;" horiz-adv-x="707" d="M420 553v248q0 55 -21.5 81.5t-66.5 26.5q-43 0 -64.5 -26t-21.5 -82v-248q0 -54 21 -83q21 -26 65 -26q43 0 65.5 27.5t22.5 81.5zM303 -25q-40 -18 -58 -38.5t-18 -45.5q0 -33 41.5 -58.5t102.5 -25.5q78 0 127 25t49 62q0 42 -57.5 61.5t-186.5 19.5zM193 313 q-69 43 -101 100q-29 58 -29 152v213q0 150 71.5 233t201.5 83q70 0 125 -28.5t106 -90.5q21 48 58 74t92 32v-173l-24 3l-17 2q-26 0 -44 -10t-32 -31l1 -36l1 -35v-238q0 -138 -66 -212.5t-190 -74.5h-26q-15 3 -22 4l-5 1q-22 -16 -34.5 -34t-12.5 -34q0 -53 117 -53 q31 0 57.5 -2.5t54.5 -7.5q128 -18 190 -77t62 -163q0 -124 -98 -188t-287 -64q-157 0 -245.5 45.5t-88.5 124.5q0 24 12 51q6 12 13.5 23.5t19 23t28.5 23.5q9 6 22 14t26 14q25 12 57 25q-59 15 -91 47t-32 76q0 51 27.5 92.5t102.5 95.5zM270 1389q0 -53 19.5 -76 t64.5 -23t64.5 23t19.5 76h131v-13q0 -105 -54.5 -159t-160.5 -54q-104 0 -159.5 54t-55.5 159v13h131z" />
<glyph unicode="&#x130;" horiz-adv-x="451" d="M115 0v1446h227v-1446h-227zM129 1526v208h192v-208h-192z" />
<glyph unicode="&#x131;" horiz-adv-x="393" d="M96 0v1067h201v-1067h-201z" />
<glyph unicode="&#x141;" horiz-adv-x="702" d="M123 0v584l-113 -80v190l113 80v672h223v-549l172 121v-193l-172 -120v-496h346v-209h-569z" />
<glyph unicode="&#x142;" horiz-adv-x="412" d="M106 0v616l-96 -67v117l96 67v713h199v-608l98 65v-117l-98 -67v-719h-199z" />
<glyph unicode="&#x152;" horiz-adv-x="1188" d="M584 1446h542v-209h-358v-379h260v-209h-260v-432h358v-217h-542q-19 -7 -37 -12t-40.5 -10t-39.5 -7t-37 -2q-164 0 -253 103t-89 299v741q0 170 93.5 267.5t256.5 97.5q26 0 37.5 -1.5t31.5 -6t38.5 -10t38.5 -13.5zM315 305q0 -62 33.5 -99.5t85.5 -37.5t81.5 35.5 t29.5 99.5v858q0 51 -32 83q-30 32 -83 32q-48 0 -81.5 -32.5t-33.5 -82.5v-856z" />
<glyph unicode="&#x153;" horiz-adv-x="1100" d="M651 674h176v108q0 66 -21.5 96.5t-66.5 30.5q-44 0 -66 -29.5t-22 -97.5v-108zM281 250q0 -42 22.5 -67t58.5 -25q40 0 63.5 24.5t23.5 67.5v581q0 33 -24.5 55.5t-62.5 22.5q-36 0 -58.5 -22t-22.5 -56v-581zM76 823q0 123 80 197t215 74q55 0 99 -15t87 -49 q47 32 94 48q25 8 47.5 12t49.5 4q133 0 207.5 -83t74.5 -231v-272h-379v-201q0 -83 20.5 -116t67.5 -33q49 0 69 27q19 29 19 122v74h203v-80q0 -163 -72.5 -246.5t-214.5 -83.5q-55 0 -101 15.5t-85 48.5q-40 -33 -86 -48q-24 -8 -49 -12t-60 -4q-128 0 -207 81t-79 218 v553z" />
<glyph unicode="&#x15e;" horiz-adv-x="803" d="M47 367l213 32q0 -52 11.5 -93t30 -68.5t44.5 -40.5t62 -13q61 0 99 39t38 101q0 112 -180 292l-21 21q-174 174 -225 269.5t-51 201.5q0 153 100.5 257.5t245.5 104.5q141 0 231 -97q48 -51 75.5 -116.5t27.5 -144.5l-218 -31q0 44 -9.5 80t-25.5 59q-27 42 -87 42 q-54 0 -86.5 -37t-32.5 -97q0 -125 210 -329l13 -13q153 -150 201.5 -245t48.5 -213q0 -158 -98 -259.5t-248 -101.5q-165 0 -264 106q-49 53 -77 128.5t-28 165.5zM188 -240l67 -12l64 -4q37 0 59.5 14t22.5 37q0 30 -27.5 45t-83.5 15h-10l62 145h69l-35 -78h17 q94 0 147.5 -33t53.5 -94q0 -63 -62 -97q-29 -16 -74.5 -25t-103.5 -9q-19 0 -39.5 1t-41.5 4q-19 0 -40 4t-45 10v77z" />
<glyph unicode="&#x15f;" horiz-adv-x="686" d="M29 289l192 43q12 -93 43.5 -133.5t87.5 -40.5q42 0 67 26t25 68q0 82 -202 236l-5 4q-101 75 -143.5 147.5t-42.5 163.5q0 130 81 211q41 40 93 60t119 20q62 0 111 -18t88 -56.5t62 -89.5t23 -113l-188 -45q-10 67 -36.5 101t-69.5 34q-40 0 -63 -25.5t-23 -68.5 q0 -68 141 -181l59 -48q110 -92 151.5 -163t41.5 -159q0 -131 -82 -211t-215 -80q-126 0 -210.5 83.5t-104.5 234.5zM131 -240l67 -12l64 -4q37 0 59.5 14t22.5 37q0 30 -27.5 45t-83.5 15h-10l62 145h69l-35 -78h17q94 0 147.5 -33t53.5 -94q0 -63 -62 -97 q-29 -16 -74.5 -25t-103.5 -9q-19 0 -39.5 1t-41.5 4q-19 0 -40 4t-45 10v77z" />
<glyph unicode="&#x160;" horiz-adv-x="803" d="M47 367l213 32q0 -52 11.5 -93t30 -68.5t44.5 -40.5t62 -13q61 0 99 39t38 101q0 112 -180 292l-21 21q-174 174 -225 269.5t-51 201.5q0 153 100.5 257.5t245.5 104.5q141 0 231 -97q48 -51 75.5 -116.5t27.5 -144.5l-218 -31q0 44 -9.5 80t-25.5 59q-27 42 -87 42 q-54 0 -86.5 -37t-32.5 -97q0 -125 210 -329l13 -13q153 -150 201.5 -245t48.5 -213q0 -158 -98 -259.5t-248 -101.5q-165 0 -264 106q-49 53 -77 128.5t-28 165.5zM491 1741h162l-154 -222h-196l-154 222h162l90 -109z" />
<glyph unicode="&#x161;" horiz-adv-x="686" d="M29 289l192 43q12 -93 43.5 -133.5t87.5 -40.5q42 0 67 26t25 68q0 82 -202 236l-5 4q-101 75 -143.5 147.5t-42.5 163.5q0 130 81 211q41 40 93 60t119 20q62 0 111 -18t88 -56.5t62 -89.5t23 -113l-188 -45q-10 67 -36.5 101t-69.5 34q-40 0 -63 -25.5t-23 -68.5 q0 -68 141 -181l59 -48q110 -92 151.5 -163t41.5 -159q0 -131 -82 -211t-215 -80q-126 0 -210.5 83.5t-104.5 234.5zM434 1389h162l-154 -222h-196l-154 222h162l90 -109z" />
<glyph unicode="&#x178;" horiz-adv-x="702" d="M-25 1446h226l145 -578h14l138 578h227l-260 -846v-600h-223v573zM395 1530v200h184v-200h-184zM125 1530v200h182v-200h-182z" />
<glyph unicode="&#x17d;" horiz-adv-x="774" d="M63 0v223l400 1000h-367v223h609v-209l-404 -1014h404v-223h-642zM477 1741h162l-154 -222h-196l-154 222h162l90 -109z" />
<glyph unicode="&#x17e;" horiz-adv-x="635" d="M53 0v178l326 703h-301v186h508v-176l-312 -701h312v-190h-533zM407 1389h162l-154 -222h-196l-154 222h162l90 -109z" />
<glyph unicode="&#x192;" horiz-adv-x="831" d="M0 -147l30 -7l27 -2q41 0 68.5 25.5t36.5 77.5l141 835h-190v166h219l45 260q24 139 82.5 203t163.5 64h25.5t31.5 -3t30 -5t27 -9v-174l-37 8l-22 2q-41 0 -68.5 -25.5t-36.5 -76.5l-38 -244h202v-166h-233l-144 -854q-23 -139 -82.5 -201.5t-164.5 -62.5h-36 q-15 3 -27.5 4.5t-21.5 3.5t-28 9v172z" />
<glyph unicode="&#x2c6;" d="M422 1167h-162l154 222h196l154 -222h-162l-90 109z" />
<glyph unicode="&#x2c7;" d="M602 1389h162l-154 -222h-196l-154 222h162l90 -109z" />
<glyph unicode="&#x2d8;" d="M428 1389q0 -53 19.5 -76t64.5 -23t64.5 23t19.5 76h131v-13q0 -105 -54.5 -159t-160.5 -54q-104 0 -159.5 54t-55.5 159v13h131z" />
<glyph unicode="&#x2d9;" d="M416 1174v208h192v-208h-192z" />
<glyph unicode="&#x2da;" d="M334 1346q0 72 51.5 125t126.5 53q74 0 126 -52.5t52 -125.5q0 -75 -52 -127t-126 -52t-126 51t-52 128zM444 1343q0 -27 20.5 -46t47.5 -19q29 0 48.5 18.5t19.5 46.5q0 30 -19.5 49t-48.5 19q-28 0 -48 -20t-20 -48z" />
<glyph unicode="&#x2db;" d="M629 0q-36 -54 -52 -97t-16 -77q0 -19 2 -31.5t9 -29.5q11 -32 32 -54h-180q-12 25 -16.5 42.5t-5.5 23t-1 18.5q0 28 6 52t20 49q24 44 87 104h115z" />
<glyph unicode="&#x2dc;" d="M766 1380v-16q0 -87 -43 -136.5t-115 -49.5q-45 0 -108 30q-30 15 -51.5 23t-32.5 8q-23 0 -38 -15q-3 -4 -8 -14.5t-5 -25.5v-8h-107v16q0 85 42.5 134.5t115.5 49.5q45 0 107.5 -30.5t84.5 -30.5t36.5 15.5t14.5 41.5v8h107z" />
<glyph unicode="&#x3a9;" horiz-adv-x="1569" d="M1194 213h305v-213h-602v229q158 92 241 244t83 352q0 210 -120.5 341.5t-316.5 131.5t-316 -133t-120 -352q0 -190 83.5 -340t240.5 -244v-229h-602v213h305q-143 128 -211 274t-68 322q0 314 190.5 508t497.5 194q303 0 496 -193t193 -493q0 -189 -65 -332t-214 -280z " />
<glyph unicode="&#x3c0;" horiz-adv-x="1368" d="M360 889h-45q-55 0 -83.5 -31t-39.5 -100h-174q27 187 100 255q36 34 95.5 51t146.5 17h953l-39 -192h-193l-84 -437l-8 -41q-22 -118 -22 -147q0 -58 23 -82t77 -24h14h13q10 2 15 2l60 8l-34 -168q-29 -8 -61 -12l-75 -4q-137 0 -201.5 48t-64.5 154q0 78 52 344l1 6 l70 353h-268l-174 -889h-226z" />
<glyph unicode="&#x2013;" d="M0 467v133h1024v-133h-1024z" />
<glyph unicode="&#x2014;" horiz-adv-x="2048" d="M0 467v133h2048v-133h-2048z" />
<glyph unicode="&#x2018;" horiz-adv-x="440" d="M328 1190v-227h-213v227l112 256h101l-76 -256h76z" />
<glyph unicode="&#x2019;" horiz-adv-x="440" d="M115 1219v227h213v-227l-115 -256h-98l73 256h-73z" />
<glyph unicode="&#x201a;" horiz-adv-x="440" d="M115 0v227h213v-227l-115 -256h-98l73 256h-73z" />
<glyph unicode="&#x201c;" horiz-adv-x="739" d="M627 1190v-227h-215v227l114 256h101l-76 -256h76zM328 1190v-227h-213v227l112 256h101l-76 -256h76z" />
<glyph unicode="&#x201d;" horiz-adv-x="739" d="M115 1219v227h213v-227l-115 -256h-98l73 256h-73zM412 1219v227h215v-227l-115 -256h-100l75 256h-75z" />
<glyph unicode="&#x201e;" horiz-adv-x="739" d="M412 0v227h215v-227l-115 -256h-100l75 256h-75zM115 0v227h213v-227l-115 -256h-98l73 256h-73z" />
<glyph unicode="&#x2020;" horiz-adv-x="788" d="M506 1446l-74 -397l316 71v-223l-316 82q13 -99 31 -179t43 -153q-13 -51 -24.5 -127.5t-22.5 -188.5q-15 -171 -21 -284t-6 -199l-78 1q0 98 -4.5 197.5t-22.5 289t-46 311.5q23 72 44 164q8 37 15 76.5t14 91.5l-313 -82v223l313 -71l-73 397h225z" />
<glyph unicode="&#x2021;" horiz-adv-x="788" d="M281 653q13 41 23 76q3 11 22 87t32 163l-317 -82v223l315 -71l-75 397h225l-74 -397l316 71v-223l-318 82q7 -46 16 -93.5t18 -86t20 -77t22 -69.5q-9 -26 -25 -85q-11 -40 -15.5 -58.5t-16.5 -82.5t-19 -101l318 82v-224l-316 72l74 -397h-225l75 397l-315 -72v224 l317 -82q-12 89 -32 174.5t-45 152.5z" />
<glyph unicode="&#x2022;" horiz-adv-x="1208" d="M307 762q0 122 87.5 208.5t209.5 86.5q121 0 208 -86.5t87 -208.5t-87.5 -209.5t-209.5 -87.5t-208.5 87.5t-86.5 209.5z" />
<glyph unicode="&#x2026;" horiz-adv-x="2048" d="M236 0v227h213v-227h-213zM918 0v227h213v-227h-213zM1602 0v227h213v-227h-213z" />
<glyph unicode="&#x2030;" horiz-adv-x="1556" d="M1391 195v329q0 33 -19 55.5t-47 22.5q-27 0 -45 -21.5t-18 -54.5v-331q0 -39 18 -66q19 -25 45 -25q32 0 49 24t17 67zM1548 231q0 -126 -57.5 -194t-165.5 -68q-109 0 -165 68t-56 199v260q0 112 60.5 176.5t166.5 64.5q100 0 158.5 -66t58.5 -179v-261zM1036 231 q0 -125 -57 -193.5t-164 -68.5q-109 0 -165 68t-56 199v260q0 112 60.5 176.5t166.5 64.5q98 0 156.5 -66t58.5 -179v-261zM881 195v329q0 33 -19 55.5t-47 22.5q-27 0 -45 -21.5t-18 -54.5v-331q0 -39 18 -66q19 -25 45 -25q32 0 49 24t17 67zM109 0l653 1446h176 l-653 -1446h-176zM307 932v332q0 34 -17 54.5t-46 20.5q-26 0 -47 -22q-19 -22 -19 -53v-332q0 -39 18.5 -63.5t47.5 -24.5t47 22q16 22 16 66zM465 969q0 -126 -57.5 -194t-163.5 -68q-108 0 -164.5 67.5t-56.5 198.5v260q0 115 59 178.5t166 63.5q98 0 157.5 -66.5 t59.5 -179.5v-260z" />
<glyph unicode="&#x2039;" horiz-adv-x="473" d="M76 530l147 318h172l-139 -318l139 -315h-172z" />
<glyph unicode="&#x203a;" horiz-adv-x="473" d="M395 530l-147 -315h-172l139 315l-139 318h172z" />
<glyph unicode="&#x20a3;" horiz-adv-x="1223" d="M115 0v1446h581v-209h-358v-379h258v-209h-258v-649h-223zM780 0v1067h201v-145q38 79 91.5 118t119.5 39h20v-223l-30 10l-35 4q-76 0 -121 -46t-45 -126v-698h-201z" />
<glyph unicode="&#x2122;" horiz-adv-x="1706" d="M809 1460h170l141 -360l133 360h170v-542h-114v428l-160 -428h-59l-166 428v-428h-115v542zM225 1460h467v-94h-168v-448h-129v448h-170v94z" />
<glyph unicode="&#x2202;" horiz-adv-x="1075" d="M758 639q3 20 14 97q8 59 12 89q9 84 9 148q0 122 -29 175.5t-92 53.5t-147.5 -58.5t-121.5 -58.5q-36 0 -64 26t-28 60q0 66 79.5 115t199.5 49q174 0 286.5 -159.5t112.5 -421.5q0 -337 -150.5 -558t-375.5 -221q-160 0 -265.5 111.5t-105.5 286.5q0 193 113 322.5 t278 129.5q99 0 166 -45t109 -141zM705 504q0 116 -41 178.5t-117 62.5q-104 0 -174 -131.5t-70 -337.5q0 -116 40.5 -177.5t117.5 -61.5q105 0 174.5 133t69.5 334z" />
<glyph unicode="&#x2206;" horiz-adv-x="1395" d="M698 1196l-379 -983h756zM569 1473h256l574 -1473h-1403z" />
<glyph unicode="&#x220f;" horiz-adv-x="1579" d="M154 1473h1267v-1866h-286v1622h-695v-1622h-286v1866z" />
<glyph unicode="&#x2211;" horiz-adv-x="1421" d="M61 1473h1280v-226h-921l647 -684l-661 -729h974v-227h-1347v160l712 786l-684 719v201z" />
<glyph unicode="&#x2212;" horiz-adv-x="1706" d="M254 696h1198v-170h-1198v170z" />
<glyph unicode="&#x2215;" horiz-adv-x="276" d="M-276 0l653 1446h176l-653 -1446h-176z" />
<glyph unicode="&#x2219;" horiz-adv-x="440" d="M92 741q0 53 37.5 91t89.5 38q53 0 91 -38t38 -91t-37 -91t-92 -38q-52 0 -89.5 39t-37.5 90z" />
<glyph unicode="&#x221a;" horiz-adv-x="1323" d="M1128 1675h197v-110h-108l-594 -1606h-82l-316 872l-131 -49l-28 95l305 108l247 -688z" />
<glyph unicode="&#x221e;" horiz-adv-x="1706" d="M928 559q45 -82 109.5 -123t146.5 -41q97 0 159 61.5t62 157.5q0 93 -57.5 157.5t-141.5 64.5q-78 0 -141 -63t-137 -214zM780 662q-45 81 -110.5 123t-145.5 42q-98 0 -159.5 -62.5t-61.5 -158.5q0 -94 56.5 -156.5t140.5 -62.5q81 0 144.5 62t135.5 213zM862 471 q-71 -136 -148.5 -198t-172.5 -62q-135 0 -231.5 114.5t-96.5 284.5q0 179 84.5 289.5t220.5 110.5q93 0 167.5 -59.5t158.5 -200.5q70 138 149 200t185 62q127 0 222 -116t95 -284q0 -177 -84.5 -288t-220.5 -111q-90 0 -164.5 56.5t-163.5 201.5z" />
<glyph unicode="&#x222b;" horiz-adv-x="1120" d="M324 -258q122 0 122 692l3 123q0 259 30 452.5t83 313.5q99 229 312 229q87 0 143 -45.5t56 -111.5q0 -60 -34 -94.5t-95 -34.5q-46 0 -74.5 22t-40.5 66l-6 45q0 38 -26 41q-53 0 -86 -157.5t-33 -457.5l-8 -249q0 -124 -9 -231t-20.5 -188.5t-25.5 -141.5t-35 -111 q-54 -135 -140 -205q-42 -34 -90.5 -52t-103.5 -18q-88 0 -142.5 44t-54.5 112q0 63 36 97t99 34q39 0 65.5 -17.5t41.5 -54.5q3 -9 6 -23.5t3 -35.5q0 -43 24 -43z" />
<glyph unicode="&#x2248;" horiz-adv-x="1706" d="M1530 592v-186q-104 -71 -198.5 -105.5t-190.5 -34.5q-88 0 -280 66.5t-298 66.5q-84 0 -173.5 -36t-211.5 -121v184q109 74 205.5 109.5t181.5 35.5q61 0 135 -16t174 -52q193 -67 277 -67q82 0 171.5 36t207.5 120zM1530 979v-184q-107 -74 -200.5 -108t-188.5 -34 q-88 0 -279 67q-95 34 -169 51t-130 17q-82 0 -170 -35t-215 -122v184q107 71 205 109q46 17 93.5 27t88.5 10q63 0 136.5 -16t173.5 -52q190 -68 268 -68q48 0 90.5 8t90.5 27q89 35 206 119z" />
<glyph unicode="&#x2260;" horiz-adv-x="1706" d="M1204 1212l123 -100l-170 -215h295v-162h-403l-197 -250h600v-161h-707l-249 -314l-123 99l170 215h-289v161h393l199 250h-592v162h700z" />
<glyph unicode="&#x2264;" horiz-adv-x="1706" d="M260 178h1186v-166h-1186v166zM1446 1223v-176l-889 -287l889 -287v-176l-1186 389v145z" />
<glyph unicode="&#x2265;" horiz-adv-x="1706" d="M260 178h1188v-166h-1188v166zM260 1223l1186 -392v-145l-1186 -389v176l891 287l-891 287v176z" />
<glyph unicode="&#x25ca;" horiz-adv-x="1012" d="M506 1409l-385 -817l385 -825l385 825zM506 1653l500 -1061l-500 -1069l-500 1069z" />
<glyph unicode="&#xe000;" horiz-adv-x="1065" d="M0 1065h1065v-1065h-1065v1065z" />
<glyph unicode="&#xf000;" horiz-adv-x="1618" d="M836 1216l-2 14v23q0 124 95 229t236 132l1 -23l1 -39q0 -131 -103.5 -234.5t-203.5 -103.5h-8l-8 1zM1505 403q-114 -246 -204.5 -342t-204.5 -96q-49 0 -131 33t-123 33q-44 0 -130.5 -33t-127.5 -33q-64 0 -128 44t-130 132q-100 137 -158 295q-27 78 -41 153t-14 148 q0 219 125 356.5t323 137.5q68 0 156.5 -34t122.5 -34q18 0 46 8t75 27q88 35 153 35q111 0 197.5 -39.5t161.5 -124.5q-101 -64 -151 -145.5t-50 -182.5q0 -111 60 -199.5t173 -138.5z" />
<glyph unicode="&#xf001;" horiz-adv-x="842" d="M539 1247v199h198v-199h-198zM539 0v1067h198v-1067h-198zM123 0v901h-113v166h113v125q0 126 58 190t173 64h24t35 -3.5t56 -12.5v-174l-35 7l-18 3q-49 0 -71.5 -21.5t-22.5 -68.5v-109h127v-166h-127v-901h-199z" />
<glyph unicode="&#xf002;" horiz-adv-x="842" d="M539 0v1446h198v-1446h-198zM123 0v901h-113v166h113v125q0 126 58 190t173 64h24t35 -3.5t56 -12.5v-174l-35 7l-18 3q-49 0 -71.5 -21.5t-22.5 -68.5v-109h127v-166h-127v-901h-199z" />
</font>
</defs>
</svg>
