<?xml version="1.0" standalone="no"?>
<!DOCTYPE svg PUBLIC "-//W3C//DTD SVG 1.1//EN" "http://www.w3.org/Graphics/SVG/1.1/DTD/svg11.dtd" >
<svg>
<metadata>
Created by FontForge 20110222 at Sat Nov  5 23:36:05 2011
 By System Administrator
 ITC Franklin Gothic is a trademark of The International Typeface Corporation which may be registered in certain jurisdictions. Portions copyright Microsoft Corporation.  All rights reserved.
</metadata>
<defs>
<font id="FranklinGothic-DemiCond" horiz-adv-x="1047" >
  <font-face 
    font-family="Franklin Gothic Demi Cond"
    font-weight="400"
    font-stretch="condensed"
    units-per-em="2048"
    panose-1="2 11 7 6 3 4 2 2 2 4"
    ascent="1638"
    descent="-410"
    x-height="1010"
    cap-height="1365"
    bbox="-541 -628 2047 2052"
    underline-thickness="102"
    underline-position="-103"
    unicode-range="U+0020-FB02"
  />
<missing-glyph horiz-adv-x="2048" 
d="M256 0v1536h1536v-1536h-1536zM384 128h1280v1280h-1280v-1280z" />
    <glyph glyph-name=".notdef" horiz-adv-x="2048" 
d="M256 0v1536h1536v-1536h-1536zM384 128h1280v1280h-1280v-1280z" />
    <glyph glyph-name=".null" horiz-adv-x="0" 
 />
    <glyph glyph-name="nonmarkingreturn" horiz-adv-x="382" 
 />
    <glyph glyph-name="space" unicode=" " horiz-adv-x="382" 
 />
    <glyph glyph-name="exclam" unicode="!" horiz-adv-x="698" 
d="M169 1365h360l-89 -958h-183zM209 302h279v-302h-279v302z" />
    <glyph glyph-name="quotedbl" unicode="&#x22;" 
d="M200 1365h264l-38 -600h-187zM584 1365h264l-38 -600h-188z" />
    <glyph glyph-name="numbersign" unicode="#" 
d="M347 1365h177l-60 -395h202l60 395h177l-60 -395h184l-25 -165h-184l-33 -219h184l-25 -167h-184l-64 -419h-176l63 419h-203l-63 -419h-177l64 419h-184l25 167h184l33 219h-184l25 165h184zM439 805l-33 -219h202l33 219h-202z" />
    <glyph glyph-name="dollar" unicode="$" 
d="M447 1479h154v-142q258 -31 334 -292l-212 -87q-62 179 -192 179q-65 0 -104.5 -40t-39.5 -97q0 -58 38 -89t163 -77q137 -50 215 -94.5t124.5 -123t46.5 -183.5q0 -161 -96 -268.5t-277 -126.5v-184h-154v183q-302 31 -374 351l238 62q33 -201 219 -201q87 0 128 43
t41 104q0 63 -41 95.5t-182 82.5q-127 44 -198.5 87t-116 120.5t-44.5 180.5q0 135 79.5 243t250.5 132v142z" />
    <glyph glyph-name="percent" unicode="%" horiz-adv-x="1361" 
d="M596 1021q0 -171 -72 -261t-198 -90q-125 0 -197.5 88t-72.5 263q0 172 71.5 261.5t198.5 89.5t198.5 -90t71.5 -261zM401 1021q0 128 -19.5 164t-55.5 36q-40 0 -58 -40t-18 -160q0 -128 19.5 -164t56.5 -36q40 0 57.5 41.5t17.5 158.5zM928 1365h154l-644 -1365h-155z
M1305 344q0 -172 -72 -261.5t-198 -89.5t-198 90t-72 261q0 172 72.5 261.5t197.5 89.5q124 0 197 -88t73 -263zM1111 344q0 128 -19.5 164t-56.5 36q-40 0 -57.5 -41t-17.5 -159q0 -127 19.5 -163.5t55.5 -36.5q41 0 58.5 41.5t17.5 158.5z" />
    <glyph glyph-name="ampersand" unicode="&#x26;" horiz-adv-x="1326" 
d="M1046 781l223 -40q-55 -242 -186 -437q71 -74 139 -74q9 0 47 2v-232q-56 -14 -104 -14q-142 0 -265 129q-167 -136 -371 -136q-226 0 -330.5 121t-104.5 282q0 263 310 394q-127 174 -127 306q0 123 100.5 213.5t259.5 90.5q161 0 255.5 -94t94.5 -232q0 -206 -236 -328
l189 -251q65 106 106 300zM635 888q123 69 123 188q0 48 -26.5 81.5t-79.5 33.5q-51 0 -79 -30t-28 -77q0 -73 90 -196zM518 618q-139 -84 -139 -218q0 -86 51 -141t144 -55q109 0 191 80z" />
    <glyph glyph-name="quotesingle" unicode="'" horiz-adv-x="698" 
d="M217 1365h264l-38 -600h-187z" />
    <glyph glyph-name="parenleft" unicode="(" horiz-adv-x="698" 
d="M351 1365h220q-208 -387 -208 -853t208 -854h-220q-248 369 -248 854q0 486 248 853z" />
    <glyph glyph-name="parenright" unicode=")" horiz-adv-x="698" 
d="M347 -342h-221q96 172 152 403.5t56 450.5q0 218 -56 449.5t-152 403.5h221q247 -370 247 -853t-247 -854z" />
    <glyph glyph-name="asterisk" unicode="*" 
d="M437 1365h171l-24 -251l207 140l83 -153l-223 -99l223 -98l-83 -153l-207 140l24 -251h-171l25 251l-207 -140l-83 153l223 98l-223 99l83 153l207 -140z" />
    <glyph glyph-name="plus" unicode="+" 
d="M636 791h306v-217h-306v-310h-225v310h-306v217h306v310h225v-310z" />
    <glyph glyph-name="comma" unicode="," horiz-adv-x="523" 
d="M122 302h279v-275l-169 -350h-110l131 323h-131v302z" />
    <glyph glyph-name="hyphen" unicode="-" horiz-adv-x="558" 
d="M76 628h407v-221h-407v221z" />
    <glyph glyph-name="period" unicode="." horiz-adv-x="523" 
d="M122 302h279v-302h-279v302z" />
    <glyph glyph-name="slash" unicode="/" horiz-adv-x="1081" 
d="M792 1365h190l-832 -1707h-190z" />
    <glyph glyph-name="zero" unicode="0" 
d="M979 699q0 -370 -106.5 -545t-349.5 -175q-251 0 -353.5 181.5t-102.5 504.5q0 372 106.5 546.5t349.5 174.5q251 0 353.5 -181.5t102.5 -505.5zM662 683q0 310 -28 397.5t-111 87.5q-75 0 -107.5 -74t-32.5 -411q0 -333 31.5 -409t108.5 -76q74 0 106.5 71.5t32.5 413.5
z" />
    <glyph glyph-name="one" unicode="1" 
d="M505 1377h229v-1154h226v-223h-756v223h230v806q-102 -106 -230 -171v267q183 96 301 252z" />
    <glyph glyph-name="two" unicode="2" 
d="M330 884l-273 55q67 447 452 447q208 0 316.5 -115.5t108.5 -282.5q0 -172 -120 -336.5t-451 -384.5h590l-22 -267h-874v267q375 321 468 453.5t93 251.5q0 170 -128 170q-77 0 -112.5 -67t-47.5 -191z" />
    <glyph glyph-name="three" unicode="3" 
d="M325 986l-261 49q103 351 450 351q190 0 296.5 -98.5t106.5 -267.5q0 -216 -203 -304q230 -73 230 -325q0 -202 -126 -307t-321 -105q-175 0 -304 92t-160 312l265 44q20 -204 178 -204q73 0 116 49t43 140q0 186 -210 186l-83 -1v221h83q67 0 105 12.5t63.5 52.5
t25.5 105q0 166 -137 166q-120 0 -157 -168z" />
    <glyph glyph-name="four" unicode="4" 
d="M516 1386h326v-832h153v-233h-153v-321h-300v321h-491v233zM566 538v562l-303 -562h303z" />
    <glyph glyph-name="five" unicode="5" 
d="M177 1365h730l-29 -267h-482l-17 -308q85 117 233 117q146 0 256.5 -107t110.5 -340q0 -238 -127 -359.5t-331 -121.5q-190 0 -312 105t-140 281l273 45q23 -187 177 -187q169 0 169 221q0 98 -45 158.5t-129 60.5q-110 0 -150 -106l-235 45z" />
    <glyph glyph-name="six" unicode="6" 
d="M981 1023l-243 -73q-33 218 -171 218q-86 0 -134 -88.5t-51 -373.5q84 155 250 155q151 0 254 -114.5t103 -313.5q0 -223 -121 -338.5t-310 -115.5q-453 0 -453 686q0 371 125 546t346 175q161 0 266 -91.5t139 -271.5zM698 433q0 209 -148 209q-155 0 -155 -229
q0 -109 41.5 -162.5t109.5 -53.5q152 0 152 236z" />
    <glyph glyph-name="seven" unicode="7" 
d="M141 1365h811v-230q-326 -421 -331 -1135h-326q8 625 400 1098h-577z" />
    <glyph glyph-name="eight" unicode="8" 
d="M775 745q211 -124 211 -354q0 -172 -121 -292t-356 -120q-226 0 -337.5 105t-111.5 271q0 99 46.5 174.5t176.5 143.5q-184 116 -184 321q0 160 108 276t327 116q208 0 311.5 -96.5t103.5 -252.5q0 -191 -174 -292zM594 835q97 92 97 188q0 75 -39.5 121.5t-112.5 46.5
q-70 0 -114 -42t-44 -107q0 -78 69.5 -127t143.5 -80zM456 575q-131 -80 -131 -200q0 -86 52 -137.5t143 -51.5q85 0 135 47t50 112q0 53 -41.5 105t-207.5 125z" />
    <glyph glyph-name="nine" unicode="9" 
d="M89 312l261 51q26 -166 146 -166q168 0 168 389l-1 42q-80 -123 -238 -123q-178 0 -272.5 135.5t-94.5 300.5q0 182 108 313.5t324 131.5q190 0 288 -101.5t131.5 -258t33.5 -320.5q0 -727 -459 -727q-319 0 -395 333zM652 958q0 100 -42 155t-114 55q-61 0 -104.5 -52
t-43.5 -157q0 -210 152 -210t152 209z" />
    <glyph glyph-name="colon" unicode=":" horiz-adv-x="523" 
d="M122 1010h279v-303l-279 1v302zM122 302h279v-302h-279v302z" />
    <glyph glyph-name="semicolon" unicode=";" horiz-adv-x="523" 
d="M122 1010h279v-303l-279 1v302zM122 302h279v-275l-169 -350h-110l131 323h-131v302z" />
    <glyph glyph-name="semicolon" unicode="&#x37e;" horiz-adv-x="523" 
d="M122 1010h279v-303l-279 1v302zM122 302h279v-275l-169 -350h-110l131 323h-131v302z" />
    <glyph glyph-name="less" unicode="&#x3c;" 
d="M967 1276v-304l-564 -290l563 -291l1 -302l-887 466v256z" />
    <glyph glyph-name="equal" unicode="=" 
d="M942 742h-837v216h837v-216zM942 407h-837v216h837v-216z" />
    <glyph glyph-name="greater" unicode="&#x3e;" 
d="M80 89v304l564 290l-562 291l-2 302l887 -466v-256z" />
    <glyph glyph-name="question" unicode="?" horiz-adv-x="977" 
d="M315 896l-256 36q4 203 112 328.5t307 125.5q210 0 306 -115t96 -268q0 -119 -46 -199.5t-155 -177.5q-77 -69 -93.5 -104.5t-16.5 -130.5h-240v45q0 125 13.5 179.5t103.5 142.5q75 73 103.5 125.5t28.5 125.5q0 67 -35 100t-82 33q-145 0 -146 -246zM315 291h268v-291
h-268v291z" />
    <glyph glyph-name="at" unicode="@" horiz-adv-x="1291" 
d="M814 1040h138l-58 -418q-11 -81 -11 -120q0 -71 45 -71q61 0 110.5 100.5t49.5 244.5q0 227 -106 355.5t-303 128.5q-202 0 -333 -154.5t-131 -422.5q0 -256 126.5 -414t360.5 -158q193 0 355 110l55 -133q-198 -128 -419 -128q-295 0 -475 195.5t-180 521.5
q0 318 176.5 525.5t464.5 207.5q275 0 425.5 -172.5t150.5 -440.5q0 -228 -108.5 -374.5t-245.5 -146.5q-117 0 -151 116q-62 -118 -176 -118q-92 0 -151.5 92t-59.5 247q0 187 84.5 314t205.5 127q100 0 148 -105zM734 732q0 136 -70 136q-49 0 -82 -68.5t-33 -184.5
q0 -155 77 -155q108 0 108 272z" />
    <glyph glyph-name="A" unicode="A" 
d="M370 1365h302l390 -1365h-307l-68 282h-384l-67 -282h-276zM630 516l-137 557l-133 -557h270z" />
    <glyph glyph-name="B" unicode="B" horiz-adv-x="1151" 
d="M129 1365h466q164 0 247.5 -26t140 -114t56.5 -219q0 -229 -195 -294q232 -82 232 -335q0 -133 -63 -224.5t-155.5 -122t-262.5 -30.5h-466v1365zM417 814h97q145 0 182.5 52t37.5 119q0 62 -37.5 110.5t-160.5 48.5h-119v-330zM417 235h147q207 0 207 178
q0 99 -51.5 139.5t-155.5 40.5h-147v-358z" />
    <glyph glyph-name="C" unicode="C" horiz-adv-x="1117" 
d="M793 497l277 -17q-15 -222 -141 -361.5t-333 -139.5q-252 0 -384 187t-132 515q0 331 131 518t389 187q427 0 465 -528l-274 -20q-11 304 -190 304q-94 0 -149.5 -98t-55.5 -380q0 -252 51 -346.5t153 -94.5q164 0 193 274z" />
    <glyph glyph-name="D" unicode="D" horiz-adv-x="1151" 
d="M129 1365h323q210 0 341.5 -56.5t210.5 -208.5t79 -411q0 -184 -48 -326.5t-126 -224.5t-176 -110t-245 -28h-359v1365zM429 1131v-896h51q104 0 161 40t91 139.5t34 287.5q0 174 -37.5 268t-94 127.5t-154.5 33.5h-51z" />
    <glyph glyph-name="E" unicode="E" horiz-adv-x="977" 
d="M129 1365h830v-234h-530v-317h412v-235h-412v-335h530v-244h-830v1365z" />
    <glyph glyph-name="F" unicode="F" horiz-adv-x="907" 
d="M129 1365h810v-234h-510v-357h393v-234h-393v-540h-300v1365z" />
    <glyph glyph-name="G" unicode="G" horiz-adv-x="1187" 
d="M608 728h474v-728h-127l-39 156q-110 -177 -330 -177q-233 0 -369.5 183.5t-136.5 493.5q0 337 134.5 533.5t397.5 196.5q419 0 470 -468l-270 -44q-28 268 -194 268q-101 0 -161.5 -99t-60.5 -375q0 -245 59 -345t173 -100q183 0 184 270h-204v235z" />
    <glyph glyph-name="H" unicode="H" horiz-adv-x="1186" 
d="M129 1365h300v-551h328v551h300v-1365h-300v558h-328v-558h-300v1365z" />
    <glyph glyph-name="I" unicode="I" horiz-adv-x="558" 
d="M129 1365h300v-1365h-300v1365z" />
    <glyph glyph-name="J" unicode="J" horiz-adv-x="663" 
d="M241 1365h300v-906q0 -173 -25.5 -269.5t-105.5 -153.5t-237 -57q-68 0 -183 21v251q72 -14 121 -14q79 0 104.5 42.5t25.5 179.5v906z" />
    <glyph glyph-name="K" unicode="K" horiz-adv-x="1081" 
d="M129 1365h300v-569l332 569h303l-342 -502l371 -863h-310l-240 629l-114 -165v-464h-300v1365z" />
    <glyph glyph-name="L" unicode="L" horiz-adv-x="872" 
d="M129 1365h300v-1109h440v-256h-740v1365z" />
    <glyph glyph-name="M" unicode="M" horiz-adv-x="1535" 
d="M129 1365h440l193 -843l217 843h427v-1365h-281v1143l-279 -1143h-218l-255 1143v-1143h-244v1365z" />
    <glyph glyph-name="N" unicode="N" horiz-adv-x="1151" 
d="M118 1365h333l351 -848v848h232v-1365h-268l-416 988v-988h-232v1365z" />
    <glyph glyph-name="O" unicode="O" horiz-adv-x="1151" 
d="M1071 683q0 -704 -495 -704q-246 0 -371 179.5t-125 524.5q0 703 495 703q242 0 369 -176t127 -527zM755 683q0 276 -43 367.5t-137 91.5q-93 0 -136 -92t-43 -367q0 -270 42.5 -365t136.5 -95q93 0 136.5 91t43.5 369z" />
    <glyph glyph-name="P" unicode="P" 
d="M129 1365h393q179 0 277.5 -30t165.5 -135.5t67 -261.5q0 -150 -54 -248t-149.5 -141.5t-293.5 -43.5h-106v-505h-300v1365zM429 1144v-404h93q123 0 158.5 57t35.5 148q0 77 -27.5 124.5t-64 61t-102.5 13.5h-93z" />
    <glyph glyph-name="Q" unicode="Q" horiz-adv-x="1151" 
d="M1021 -48v-216q-65 -18 -128 -18q-256 0 -272 263q-37 -2 -57 -2q-221 0 -352.5 169.5t-131.5 534.5q0 703 495 703q245 0 370.5 -178t125.5 -513q0 -241 -55.5 -403.5t-194.5 -252.5q1 -59 25 -80.5t73 -21.5q46 0 102 15zM755 683q0 276 -43 367.5t-137 91.5
q-93 0 -136 -92t-43 -367q0 -270 42.5 -365t136.5 -95q93 0 136.5 91t43.5 369z" />
    <glyph glyph-name="R" unicode="R" horiz-adv-x="1116" 
d="M129 1365h429q125 0 191.5 -11.5t134.5 -62t106.5 -138t38.5 -196.5q0 -256 -192 -360l251 -597h-327l-182 540h-150v-540h-300v1365zM429 1144v-383h132q176 0 176 197q0 68 -26 111.5t-60.5 59t-101.5 15.5h-120z" />
    <glyph glyph-name="S" unicode="S" 
d="M964 1068l-248 -95q-53 169 -194 169q-66 0 -104.5 -37.5t-38.5 -87.5q0 -58 45.5 -92.5t190.5 -90.5q132 -49 207.5 -97t122 -130.5t46.5 -191.5q0 -191 -131.5 -313.5t-352.5 -122.5q-371 0 -474 375l262 75q48 -206 219 -206q78 0 126.5 40.5t48.5 106.5
q0 50 -34 89.5t-156 83.5q-157 56 -234 101.5t-127 130t-50 192.5q0 184 118.5 301.5t313.5 117.5q356 0 444 -318z" />
    <glyph glyph-name="T" unicode="T" horiz-adv-x="802" 
d="M-24 1365h851v-256h-279v-1109h-300v1109h-272v256z" />
    <glyph glyph-name="U" unicode="U" horiz-adv-x="1186" 
d="M129 1365h300v-780q0 -165 15 -230t62.5 -98.5t116.5 -33.5q75 0 119 37t54 98t10 227v780h251v-768q0 -230 -26.5 -343t-135 -194t-298.5 -81q-178 0 -280 59.5t-145 167t-43 379.5v780z" />
    <glyph glyph-name="V" unicode="V" horiz-adv-x="942" 
d="M-28 1365h315l210 -1040l217 1040h257l-335 -1372l-336 7z" />
    <glyph glyph-name="W" unicode="W" horiz-adv-x="1465" 
d="M-11 1365h307l143 -945l179 945h275l168 -947l167 947h253l-293 -1372h-269l-182 949l-186 -949h-266z" />
    <glyph glyph-name="X" unicode="X" horiz-adv-x="977" 
d="M10 1365h334l163 -355l172 355h287l-322 -617l364 -748h-329l-199 446l-224 -446h-287l375 700z" />
    <glyph glyph-name="Y" unicode="Y" horiz-adv-x="907" 
d="M-58 1365h330l193 -498l206 498h293l-379 -788v-577h-300v577z" />
    <glyph glyph-name="Z" unicode="Z" horiz-adv-x="942" 
d="M44 1365h877v-213l-571 -908h589v-244h-937v209l575 912h-533v244z" />
    <glyph glyph-name="bracketleft" unicode="[" horiz-adv-x="698" 
d="M150 1365h421v-128h-172v-1451h172v-128h-421v1707z" />
    <glyph glyph-name="backslash" unicode="\" horiz-adv-x="1082" 
d="M289 1365l832 -1707h-189l-833 1707h190z" />
    <glyph glyph-name="bracketright" unicode="]" horiz-adv-x="698" 
d="M548 -342h-421v128h172v1451h-172v128h421v-1707z" />
    <glyph glyph-name="asciicircum" unicode="^" horiz-adv-x="1024" 
d="M301 718h-270l311 655h339l311 -655h-270l-210 449z" />
    <glyph glyph-name="underscore" unicode="_" horiz-adv-x="1024" 
d="M0 -116h1024v-182h-1024v182z" />
    <glyph glyph-name="grave" unicode="`" horiz-adv-x="942" 
d="M651 1203l-84 -84l-369 231l112 167z" />
    <glyph glyph-name="a" unicode="a" horiz-adv-x="977" 
d="M374 689l-267 26q19 152 129.5 234t278.5 82q142 0 228 -54.5t108.5 -126.5t22.5 -223v-403q0 -188 17 -224h-261q-14 41 -14 155q-93 -176 -277 -176q-118 0 -192 70.5t-74 205.5q0 169 112 261.5t408 110.5v38q0 101 -20.5 140t-79.5 39q-108 0 -119 -155zM593 483
q-123 -14 -175.5 -54.5t-52.5 -136.5q0 -128 94 -128q51 0 92.5 57.5t41.5 211.5v50z" />
    <glyph glyph-name="b" unicode="b" horiz-adv-x="977" 
d="M104 1365h277v-450q82 109 210 109q140 0 233 -126t93 -387q0 -251 -91 -391.5t-266 -140.5q-172 0 -236 153q-29 -52 -53 -132h-167v1365zM381 419q0 -139 26 -192t92 -53q73 0 100 75.5t27 254.5q0 173 -26 253t-96 80q-123 0 -123 -185v-233z" />
    <glyph glyph-name="c" unicode="c" horiz-adv-x="907" 
d="M858 638l-262 -10q-6 93 -30 140.5t-81 47.5q-142 0 -142 -298q0 -173 34.5 -242t102.5 -69q106 0 116 187l262 -17q-35 -398 -396 -398q-195 0 -298.5 131.5t-103.5 391.5q0 258 108.5 393t304.5 135q354 0 385 -392z" />
    <glyph glyph-name="d" unicode="d" horiz-adv-x="977" 
d="M598 1365h277v-1365h-261v167q-64 -181 -230 -181q-163 0 -243 142t-80 373q0 263 91.5 393t244.5 130q141 0 201 -108v449zM598 587q0 149 -31.5 199.5t-91.5 50.5q-71 0 -96.5 -70t-25.5 -290q0 -164 28 -230t92 -66q54 0 89.5 44.5t35.5 182.5v179z" />
    <glyph glyph-name="e" unicode="e" horiz-adv-x="942" 
d="M881 458h-530v-56q0 -136 37 -182t97 -46q129 0 145 173l251 -16q-67 -352 -401 -352q-206 0 -313 139t-107 372q0 263 113.5 401.5t304.5 138.5q172 0 287.5 -122.5t115.5 -449.5zM615 621q1 18 1 28q0 195 -132 195q-130 0 -131 -223h262z" />
    <glyph glyph-name="f" unicode="f" horiz-adv-x="593" 
d="M422 1010h178v-222h-178v-788h-270v788h-115v222h115q1 149 23 223t95 130t199 56q74 0 142 -10v-220q-34 4 -63 4q-81 0 -103.5 -34.5t-22.5 -148.5z" />
    <glyph glyph-name="g" unicode="g" horiz-adv-x="942" 
d="M963 1176v-184q-32 8 -61 8q-88 0 -107 -91q75 -79 75 -202q0 -137 -102 -219.5t-264 -82.5q-62 0 -131 17q-66 -36 -66 -83q0 -38 37 -50t202 -21q152 -9 227.5 -30t126 -86t50.5 -171q0 -338 -493 -338q-414 0 -414 241q0 133 165 188q-132 62 -132 175q0 130 174 222
q-150 74 -150 252q0 151 103.5 230t276.5 79q115 0 216 -44q11 108 54 154t135 46q44 0 78 -10zM579 716q0 163 -89 163q-54 0 -76.5 -39.5t-22.5 -130.5q0 -153 97 -153q49 0 70 36t21 124zM364 44q-89 -41 -89 -122q0 -102 232 -102q199 0 199 106q0 39 -21.5 63.5t-55 31
t-140.5 11.5q-63 4 -125 12z" />
    <glyph glyph-name="h" unicode="h" horiz-adv-x="977" 
d="M104 1365h282v-462q76 128 248 128q103 0 162.5 -48t75.5 -121.5t16 -213.5v-648h-282v648q0 99 -18.5 131.5t-76.5 32.5q-57 0 -91 -31t-34 -141v-640h-282v1365z" />
    <glyph glyph-name="i" unicode="i" horiz-adv-x="488" 
d="M387 1093h-286v279h286v-279zM103 1010h282v-1010h-282v1010z" />
    <glyph glyph-name="j" unicode="j" horiz-adv-x="488" 
d="M397 1093h-286v279h286v-279zM113 1010h282v-977q0 -156 -17 -234t-81 -123.5t-163 -45.5q-63 0 -151 14v231q21 -3 37 -3q62 0 77.5 31t15.5 138v969z" />
    <glyph glyph-name="k" unicode="k" horiz-adv-x="942" 
d="M104 1365h282v-745l284 390h256l-255 -339l280 -671h-304l-158 469l-103 -142v-327h-282v1365z" />
    <glyph glyph-name="l" unicode="l" horiz-adv-x="488" 
d="M103 1365h282v-1365h-282v1365z" />
    <glyph glyph-name="m" unicode="m" horiz-adv-x="1430" 
d="M104 1010h267v-138q72 158 245 158q180 0 218 -158q68 158 245 158q99 0 157.5 -36t81.5 -98.5t23 -235.5v-660h-281v631q0 113 -16 147t-71 34q-66 0 -86 -44.5t-20 -179.5v-588h-282v640q0 108 -15.5 140t-70.5 32q-68 0 -90.5 -46.5t-22.5 -177.5v-588h-282v1010z" />
    <glyph glyph-name="n" unicode="n" horiz-adv-x="977" 
d="M104 1010h267v-138q70 158 253 158q99 0 163.5 -44.5t82.5 -113.5t18 -210v-662h-282v662q0 102 -26 126t-70 24q-76 0 -100 -46.5t-24 -173.5v-592h-282v1010z" />
    <glyph glyph-name="o" unicode="o" horiz-adv-x="942" 
d="M882 505q0 -526 -410 -526q-411 0 -411 526q0 525 411 525q410 0 410 -525zM591 505q0 193 -26.5 261t-92.5 68q-64 0 -92 -64.5t-28 -264.5q0 -185 24 -257t96 -72q69 0 94 71.5t25 257.5z" />
    <glyph glyph-name="p" unicode="p" horiz-adv-x="977" 
d="M104 1010h260v-151q83 164 230 164q139 0 231 -123.5t92 -377.5q0 -266 -90 -401t-253 -135q-117 0 -193 89v-417h-277v1352zM381 413q0 -145 23.5 -188.5t95.5 -43.5q64 0 95 58t31 281q0 186 -27 252t-91 66q-53 0 -90 -41.5t-37 -192.5v-191z" />
    <glyph glyph-name="q" unicode="q" horiz-adv-x="977" 
d="M719 1010h155q-9 -75 -9 -258v-1094h-277v447q-79 -119 -207 -119q-143 0 -231.5 132.5t-88.5 370.5q0 286 93.5 410.5t247.5 124.5q151 0 240 -145q45 50 77 131zM588 608q0 140 -29.5 185t-89.5 45q-69 0 -93.5 -55.5t-24.5 -253.5q0 -222 26 -285t93 -63
q55 0 86.5 51.5t31.5 226.5v149z" />
    <glyph glyph-name="r" unicode="r" horiz-adv-x="628" 
d="M104 1010h248v-244q67 257 239 257q21 0 48 -5v-275q-31 4 -47 4q-206 0 -206 -312v-435h-282v1010z" />
    <glyph glyph-name="s" unicode="s" horiz-adv-x="837" 
d="M770 767l-201 -60q-40 137 -148 137q-88 0 -88 -88q0 -50 33 -76t136 -62q116 -41 170 -72t91 -93.5t37 -143.5q0 -140 -101 -235t-282 -95q-341 0 -378 301l224 36q28 -151 159 -151q112 0 112 94q0 50 -33 76t-128 56q-174 56 -239 135t-65 183q0 146 102.5 234
t256.5 88q269 0 342 -264z" />
    <glyph glyph-name="t" unicode="t" horiz-adv-x="628" 
d="M146 1320l274 9v-319h186v-222h-186v-371q0 -103 4.5 -133.5t30 -51t85.5 -20.5q32 0 80 2v-214q-94 -21 -172 -21q-128 0 -196 49t-87 123t-19 235v402h-112v222h112v310z" />
    <glyph glyph-name="u" unicode="u" horiz-adv-x="977" 
d="M90 1010h282v-648q0 -98 18 -131t78 -33q55 0 83.5 27t34.5 74.5t6 195.5v515h282v-1010h-265v138q-60 -103 -119.5 -131t-140.5 -28q-109 0 -167 45t-75 114t-17 215v657z" />
    <glyph glyph-name="v" unicode="v" horiz-adv-x="733" 
d="M-22 1010h271l139 -597l141 597h234l-277 -1010h-223z" />
    <glyph glyph-name="w" unicode="w" horiz-adv-x="1186" 
d="M-17 1010h274l119 -614l113 614h274l92 -614l136 614h221l-253 -1010h-236l-130 687l-127 -687h-229z" />
    <glyph glyph-name="x" unicode="x" horiz-adv-x="768" 
d="M-11 1010h306l107 -234l130 234h245l-261 -446l301 -564h-305l-148 302l-169 -302h-245l299 517z" />
    <glyph glyph-name="y" unicode="y" horiz-adv-x="733" 
d="M-28 1010h282l136 -617l131 617h243l-304 -1026q-44 -147 -75 -206t-93 -97.5t-158 -38.5q-59 0 -120 16v222q42 -6 79 -6q82 0 112.5 27t57.5 118z" />
    <glyph glyph-name="z" unicode="z" horiz-adv-x="733" 
d="M76 1010h630v-181l-375 -629h385v-200h-675v200l366 610h-331v200z" />
    <glyph glyph-name="braceleft" unicode="{" horiz-adv-x="698" 
d="M546 1363v-134q-73 -2 -92.5 -29.5t-19.5 -146.5v-223q0 -182 -18 -226.5t-102 -78.5q83 -33 101.5 -78t18.5 -227v-250q0 -118 19 -145t93 -31v-134q-70 -2 -93 -2q-93 0 -139.5 13.5t-86 72t-39.5 226.5v352q-1 69 -19.5 93t-80.5 27v167q70 2 85 30.5t15 181.5v232
q0 197 57.5 255t206.5 58q30 0 94 -3z" />
    <glyph glyph-name="bar" unicode="|" horiz-adv-x="1024" 
d="M358 1365h307v-1706h-307v1706z" />
    <glyph glyph-name="braceright" unicode="}" horiz-adv-x="698" 
d="M151 -340v134q74 4 93 30.5t19 145.5v250q0 182 18 226.5t102 78.5q-83 33 -101.5 78t-18.5 227v223q0 118 -19 146t-93 30v134q70 3 92 3q119 0 164 -24t73.5 -83t28.5 -206v-232l1 -92q0 -70 18.5 -94t80.5 -26v-167q-52 -1 -73 -20t-24 -48t-3 -145v-259
q0 -135 -25 -199t-77 -88.5t-161 -24.5q-29 0 -95 2z" />
    <glyph glyph-name="asciitilde" unicode="~" horiz-adv-x="1365" 
d="M339 1131l-149 124q112 279 305 279q69 0 231 -70q120 -52 157 -52q83 0 148 127l149 -124q-105 -274 -321 -274q-62 0 -227 72q-103 45 -150 45q-78 0 -143 -127z" />
    <glyph glyph-name="Adieresis" unicode="&#xc4;" 
d="M370 1365h302l390 -1365h-307l-68 282h-384l-67 -282h-276zM630 516l-137 557l-133 -557h270zM572 1601q0 45 33.5 76.5t80.5 31.5q48 0 81 -31.5t33 -76.5q0 -48 -36 -77.5t-78 -29.5q-43 0 -78.5 30t-35.5 77zM234 1601q0 45 33.5 76.5t80.5 31.5t80.5 -31.5
t33.5 -76.5q0 -47 -35.5 -77t-78.5 -30q-41 0 -77.5 29t-36.5 78z" />
    <glyph glyph-name="Aring" unicode="&#xc5;" 
d="M370 1365h302l390 -1365h-307l-68 282h-384l-67 -282h-276zM630 516l-137 557l-133 -557h270zM330 1644q0 83 58 139t135 56t135 -55.5t58 -139.5q0 -86 -60.5 -139t-132.5 -53t-132.5 53.5t-60.5 138.5zM446 1645q0 -36 24.5 -58.5t52.5 -22.5q29 0 53 22.5t24 58.5
q0 35 -23.5 58.5t-53.5 23.5t-53.5 -23.5t-23.5 -58.5z" />
    <glyph glyph-name="Ccedilla" unicode="&#xc7;" horiz-adv-x="1117" 
d="M635 -271q0 36 -30.5 60t-87.5 24l-63 -1l61 172q-435 79 -435 697q0 331 131 518t389 187q427 0 465 -528l-274 -20q-11 304 -190 304q-94 0 -149.5 -98t-55.5 -380q0 -252 51 -346.5t153 -94.5q164 0 193 274l277 -17q-12 -196 -122 -339t-320 -162l-27 -84q26 3 40 3
q73 0 120.5 -45.5t47.5 -118.5q0 -77 -56 -126.5t-156 -49.5q-110 0 -227 74l34 91q98 -52 166 -52q65 0 65 58z" />
    <glyph glyph-name="Eacute" unicode="&#xc9;" horiz-adv-x="977" 
d="M129 1365h830v-234h-530v-317h412v-235h-412v-335h530v-244h-830v1365zM383 1554l341 314l112 -167l-369 -231z" />
    <glyph glyph-name="Ntilde" unicode="&#xd1;" horiz-adv-x="1151" 
d="M118 1365h333l351 -848v848h232v-1365h-268l-416 988v-988h-232v1365zM831 1704l89 -66q-102 -153 -229 -153q-48 0 -126 35q-88 39 -122 39q-39 0 -95 -63l-86 67q111 143 219 143q50 0 132 -35q90 -39 122 -39q45 0 96 72z" />
    <glyph glyph-name="Odieresis" unicode="&#xd6;" horiz-adv-x="1151" 
d="M1071 683q0 -704 -495 -704q-246 0 -371 179.5t-125 524.5q0 703 495 703q242 0 369 -176t127 -527zM755 683q0 276 -43 367.5t-137 91.5q-93 0 -136 -92t-43 -367q0 -270 42.5 -365t136.5 -95q93 0 136.5 91t43.5 369zM638 1601q0 45 33.5 76.5t80.5 31.5q48 0 81 -31.5
t33 -76.5q0 -48 -36 -77.5t-78 -29.5q-43 0 -78.5 30t-35.5 77zM300 1601q0 45 33.5 76.5t80.5 31.5t80.5 -31.5t33.5 -76.5q0 -47 -35.5 -77t-78.5 -30q-41 0 -77.5 29t-36.5 78z" />
    <glyph glyph-name="Udieresis" unicode="&#xdc;" horiz-adv-x="1186" 
d="M129 1365h300v-780q0 -165 15 -230t62.5 -98.5t116.5 -33.5q75 0 119 37t54 98t10 227v780h251v-768q0 -230 -26.5 -343t-135 -194t-298.5 -81q-178 0 -280 59.5t-145 167t-43 379.5v780zM655 1601q0 45 33.5 76.5t80.5 31.5q48 0 81 -31.5t33 -76.5q0 -48 -36 -77.5
t-78 -29.5q-43 0 -78.5 30t-35.5 77zM317 1601q0 45 33.5 76.5t80.5 31.5t80.5 -31.5t33.5 -76.5q0 -47 -35.5 -77t-78.5 -30q-41 0 -77.5 29t-36.5 78z" />
    <glyph glyph-name="aacute" unicode="&#xe1;" horiz-adv-x="977" 
d="M374 689l-267 26q19 152 129.5 234t278.5 82q142 0 228 -54.5t108.5 -126.5t22.5 -223v-403q0 -188 17 -224h-261q-14 41 -14 155q-93 -176 -277 -176q-118 0 -192 70.5t-74 205.5q0 169 112 261.5t408 110.5v38q0 101 -20.5 140t-79.5 39q-108 0 -119 -155zM593 483
q-123 -14 -175.5 -54.5t-52.5 -136.5q0 -128 94 -128q51 0 92.5 57.5t41.5 211.5v50zM364 1203l341 314l112 -167l-369 -231z" />
    <glyph glyph-name="agrave" unicode="&#xe0;" horiz-adv-x="977" 
d="M374 689l-267 26q19 152 129.5 234t278.5 82q142 0 228 -54.5t108.5 -126.5t22.5 -223v-403q0 -188 17 -224h-261q-14 41 -14 155q-93 -176 -277 -176q-118 0 -192 70.5t-74 205.5q0 169 112 261.5t408 110.5v38q0 101 -20.5 140t-79.5 39q-108 0 -119 -155zM593 483
q-123 -14 -175.5 -54.5t-52.5 -136.5q0 -128 94 -128q51 0 92.5 57.5t41.5 211.5v50zM670 1203l-84 -84l-369 231l112 167z" />
    <glyph glyph-name="acircumflex" unicode="&#xe2;" horiz-adv-x="977" 
d="M374 689l-267 26q19 152 129.5 234t278.5 82q142 0 228 -54.5t108.5 -126.5t22.5 -223v-403q0 -188 17 -224h-261q-14 41 -14 155q-93 -176 -277 -176q-118 0 -192 70.5t-74 205.5q0 169 112 261.5t408 110.5v38q0 101 -20.5 140t-79.5 39q-108 0 -119 -155zM593 483
q-123 -14 -175.5 -54.5t-52.5 -136.5q0 -128 94 -128q51 0 92.5 57.5t41.5 211.5v50zM56 1132l401 313l401 -313h-218l-183 118l-183 -118h-218z" />
    <glyph glyph-name="adieresis" unicode="&#xe4;" horiz-adv-x="977" 
d="M374 689l-267 26q19 152 129.5 234t278.5 82q142 0 228 -54.5t108.5 -126.5t22.5 -223v-403q0 -188 17 -224h-261q-14 41 -14 155q-93 -176 -277 -176q-118 0 -192 70.5t-74 205.5q0 169 112 261.5t408 110.5v38q0 101 -20.5 140t-79.5 39q-108 0 -119 -155zM593 483
q-123 -14 -175.5 -54.5t-52.5 -136.5q0 -128 94 -128q51 0 92.5 57.5t41.5 211.5v50zM565 1269q0 45 33.5 76.5t80.5 31.5q48 0 81 -31.5t33 -76.5q0 -48 -36 -77.5t-78 -29.5q-43 0 -78.5 30t-35.5 77zM227 1269q0 45 33.5 76.5t80.5 31.5t80.5 -31.5t33.5 -76.5
q0 -47 -35.5 -77t-78.5 -30q-41 0 -77.5 29t-36.5 78z" />
    <glyph glyph-name="atilde" unicode="&#xe3;" horiz-adv-x="977" 
d="M374 689l-267 26q19 152 129.5 234t278.5 82q142 0 228 -54.5t108.5 -126.5t22.5 -223v-403q0 -188 17 -224h-261q-14 41 -14 155q-93 -176 -277 -176q-118 0 -192 70.5t-74 205.5q0 169 112 261.5t408 110.5v38q0 101 -20.5 140t-79.5 39q-108 0 -119 -155zM593 483
q-123 -14 -175.5 -54.5t-52.5 -136.5q0 -128 94 -128q51 0 92.5 57.5t41.5 211.5v50zM750 1385l89 -66q-102 -153 -229 -153q-48 0 -126 35q-88 39 -122 39q-39 0 -95 -63l-86 67q111 143 219 143q50 0 132 -35q90 -39 122 -39q45 0 96 72z" />
    <glyph glyph-name="aring" unicode="&#xe5;" horiz-adv-x="977" 
d="M374 689l-267 26q19 152 129.5 234t278.5 82q142 0 228 -54.5t108.5 -126.5t22.5 -223v-403q0 -188 17 -224h-261q-14 41 -14 155q-93 -176 -277 -176q-118 0 -192 70.5t-74 205.5q0 169 112 261.5t408 110.5v38q0 101 -20.5 140t-79.5 39q-108 0 -119 -155zM593 483
q-123 -14 -175.5 -54.5t-52.5 -136.5q0 -128 94 -128q51 0 92.5 57.5t41.5 211.5v50zM320 1301q0 83 58 139t135 56t135 -55.5t58 -139.5q0 -86 -60.5 -139t-132.5 -53t-132.5 53.5t-60.5 138.5zM436 1302q0 -36 24.5 -58.5t52.5 -22.5q29 0 53 22.5t24 58.5
q0 35 -23.5 58.5t-53.5 23.5t-53.5 -23.5t-23.5 -58.5z" />
    <glyph glyph-name="ccedilla" unicode="&#xe7;" horiz-adv-x="907" 
d="M858 638l-262 -10q-6 93 -30 140.5t-81 47.5q-142 0 -142 -298q0 -173 34.5 -242t102.5 -69q106 0 116 187l262 -17q-34 -364 -352 -397l-32 -82q26 3 40 3q70 0 116.5 -44t46.5 -115q0 -76 -55 -123.5t-152 -47.5q-106 0 -220 72l34 88q96 -55 162 -55q71 0 71 61
q0 38 -33.5 62t-83.5 24q-26 0 -67 -5l60 165q-333 54 -333 519q0 258 108.5 393t304.5 135q354 0 385 -392z" />
    <glyph glyph-name="eacute" unicode="&#xe9;" horiz-adv-x="942" 
d="M881 458h-530v-56q0 -136 37 -182t97 -46q129 0 145 173l251 -16q-67 -352 -401 -352q-206 0 -313 139t-107 372q0 263 113.5 401.5t304.5 138.5q172 0 287.5 -122.5t115.5 -449.5zM615 621q1 18 1 28q0 195 -132 195q-130 0 -131 -223h262zM338 1203l341 314l112 -167
l-369 -231z" />
    <glyph glyph-name="egrave" unicode="&#xe8;" horiz-adv-x="942" 
d="M881 458h-530v-56q0 -136 37 -182t97 -46q129 0 145 173l251 -16q-67 -352 -401 -352q-206 0 -313 139t-107 372q0 263 113.5 401.5t304.5 138.5q172 0 287.5 -122.5t115.5 -449.5zM615 621q1 18 1 28q0 195 -132 195q-130 0 -131 -223h262zM651 1203l-84 -84l-369 231
l112 167z" />
    <glyph glyph-name="ecircumflex" unicode="&#xea;" horiz-adv-x="942" 
d="M881 458h-530v-56q0 -136 37 -182t97 -46q129 0 145 173l251 -16q-67 -352 -401 -352q-206 0 -313 139t-107 372q0 263 113.5 401.5t304.5 138.5q172 0 287.5 -122.5t115.5 -449.5zM615 621q1 18 1 28q0 195 -132 195q-130 0 -131 -223h262zM90 1132l401 313l401 -313
h-218l-183 118l-183 -118h-218z" />
    <glyph glyph-name="edieresis" unicode="&#xeb;" horiz-adv-x="942" 
d="M881 458h-530v-56q0 -136 37 -182t97 -46q129 0 145 173l251 -16q-67 -352 -401 -352q-206 0 -313 139t-107 372q0 263 113.5 401.5t304.5 138.5q172 0 287.5 -122.5t115.5 -449.5zM615 621q1 18 1 28q0 195 -132 195q-130 0 -131 -223h262zM546 1269q0 45 33.5 76.5
t80.5 31.5q48 0 81 -31.5t33 -76.5q0 -48 -36 -77.5t-78 -29.5q-43 0 -78.5 30t-35.5 77zM208 1269q0 45 33.5 76.5t80.5 31.5t80.5 -31.5t33.5 -76.5q0 -47 -35.5 -77t-78.5 -30q-41 0 -77.5 29t-36.5 78z" />
    <glyph glyph-name="iacute" unicode="&#xed;" horiz-adv-x="488" 
d="M103 1010h282v-1010h-282v1010zM85 1203l341 314l112 -167l-369 -231z" />
    <glyph glyph-name="igrave" unicode="&#xec;" horiz-adv-x="488" 
d="M103 1010h282v-1010h-282v1010zM404 1203l-84 -84l-369 231l112 167z" />
    <glyph glyph-name="icircumflex" unicode="&#xee;" horiz-adv-x="488" 
d="M103 1010h282v-1010h-282v1010zM-157 1132l401 313l401 -313h-218l-183 118l-183 -118h-218z" />
    <glyph glyph-name="idieresis" unicode="&#xef;" horiz-adv-x="488" 
d="M103 1010h282v-1010h-282v1010zM299 1269q0 45 33.5 76.5t80.5 31.5q48 0 81 -31.5t33 -76.5q0 -48 -36 -77.5t-78 -29.5q-43 0 -78.5 30t-35.5 77zM-39 1269q0 45 33.5 76.5t80.5 31.5t80.5 -31.5t33.5 -76.5q0 -47 -35.5 -77t-78.5 -30q-41 0 -77.5 29t-36.5 78z" />
    <glyph glyph-name="ntilde" unicode="&#xf1;" horiz-adv-x="977" 
d="M104 1010h267v-138q70 158 253 158q99 0 163.5 -44.5t82.5 -113.5t18 -210v-662h-282v662q0 102 -26 126t-70 24q-76 0 -100 -46.5t-24 -173.5v-592h-282v1010zM722 1385l89 -66q-102 -153 -229 -153q-48 0 -126 35q-88 39 -122 39q-39 0 -95 -63l-86 67q111 143 219 143
q50 0 132 -35q90 -39 122 -39q45 0 96 72z" />
    <glyph glyph-name="oacute" unicode="&#xf3;" horiz-adv-x="942" 
d="M882 505q0 -526 -410 -526q-411 0 -411 526q0 525 411 525q410 0 410 -525zM591 505q0 193 -26.5 261t-92.5 68q-64 0 -92 -64.5t-28 -264.5q0 -185 24 -257t96 -72q69 0 94 71.5t25 257.5zM325 1203l341 314l112 -167l-369 -231z" />
    <glyph glyph-name="ograve" unicode="&#xf2;" horiz-adv-x="942" 
d="M882 505q0 -526 -410 -526q-411 0 -411 526q0 525 411 525q410 0 410 -525zM591 505q0 193 -26.5 261t-92.5 68q-64 0 -92 -64.5t-28 -264.5q0 -185 24 -257t96 -72q69 0 94 71.5t25 257.5zM638 1203l-84 -84l-369 231l112 167z" />
    <glyph glyph-name="ocircumflex" unicode="&#xf4;" horiz-adv-x="942" 
d="M882 505q0 -526 -410 -526q-411 0 -411 526q0 525 411 525q410 0 410 -525zM591 505q0 193 -26.5 261t-92.5 68q-64 0 -92 -64.5t-28 -264.5q0 -185 24 -257t96 -72q69 0 94 71.5t25 257.5zM70 1132l401 313l401 -313h-218l-183 118l-183 -118h-218z" />
    <glyph glyph-name="odieresis" unicode="&#xf6;" horiz-adv-x="942" 
d="M882 505q0 -526 -410 -526q-411 0 -411 526q0 525 411 525q410 0 410 -525zM591 505q0 193 -26.5 261t-92.5 68q-64 0 -92 -64.5t-28 -264.5q0 -185 24 -257t96 -72q69 0 94 71.5t25 257.5zM526 1269q0 45 33.5 76.5t80.5 31.5q48 0 81 -31.5t33 -76.5q0 -48 -36 -77.5
t-78 -29.5q-43 0 -78.5 30t-35.5 77zM188 1269q0 45 33.5 76.5t80.5 31.5t80.5 -31.5t33.5 -76.5q0 -47 -35.5 -77t-78.5 -30q-41 0 -77.5 29t-36.5 78z" />
    <glyph glyph-name="otilde" unicode="&#xf5;" horiz-adv-x="942" 
d="M882 505q0 -526 -410 -526q-411 0 -411 526q0 525 411 525q410 0 410 -525zM591 505q0 193 -26.5 261t-92.5 68q-64 0 -92 -64.5t-28 -264.5q0 -185 24 -257t96 -72q69 0 94 71.5t25 257.5zM711 1385l89 -66q-102 -153 -229 -153q-48 0 -126 35q-88 39 -122 39
q-39 0 -95 -63l-86 67q111 143 219 143q50 0 132 -35q90 -39 122 -39q45 0 96 72z" />
    <glyph glyph-name="uacute" unicode="&#xfa;" horiz-adv-x="977" 
d="M90 1010h282v-648q0 -98 18 -131t78 -33q55 0 83.5 27t34.5 74.5t6 195.5v515h282v-1010h-265v138q-60 -103 -119.5 -131t-140.5 -28q-109 0 -167 45t-75 114t-17 215v657zM329 1203l341 314l112 -167l-369 -231z" />
    <glyph glyph-name="ugrave" unicode="&#xf9;" horiz-adv-x="977" 
d="M90 1010h282v-648q0 -98 18 -131t78 -33q55 0 83.5 27t34.5 74.5t6 195.5v515h282v-1010h-265v138q-60 -103 -119.5 -131t-140.5 -28q-109 0 -167 45t-75 114t-17 215v657zM642 1203l-84 -84l-369 231l112 167z" />
    <glyph glyph-name="ucircumflex" unicode="&#xfb;" horiz-adv-x="977" 
d="M90 1010h282v-648q0 -98 18 -131t78 -33q55 0 83.5 27t34.5 74.5t6 195.5v515h282v-1010h-265v138q-60 -103 -119.5 -131t-140.5 -28q-109 0 -167 45t-75 114t-17 215v657zM81 1132l401 313l401 -313h-218l-183 118l-183 -118h-218z" />
    <glyph glyph-name="udieresis" unicode="&#xfc;" horiz-adv-x="977" 
d="M90 1010h282v-648q0 -98 18 -131t78 -33q55 0 83.5 27t34.5 74.5t6 195.5v515h282v-1010h-265v138q-60 -103 -119.5 -131t-140.5 -28q-109 0 -167 45t-75 114t-17 215v657zM537 1269q0 45 33.5 76.5t80.5 31.5q48 0 81 -31.5t33 -76.5q0 -48 -36 -77.5t-78 -29.5
q-43 0 -78.5 30t-35.5 77zM199 1269q0 45 33.5 76.5t80.5 31.5t80.5 -31.5t33.5 -76.5q0 -47 -35.5 -77t-78.5 -30q-41 0 -77.5 29t-36.5 78z" />
    <glyph glyph-name="dagger" unicode="&#x2020;" 
d="M388 1365h271v-366h283v-235h-283v-1106h-271v1106h-283v235h283v366z" />
    <glyph glyph-name="degree" unicode="&#xb0;" 
d="M849 1061q0 -135 -96 -230.5t-229 -95.5q-134 0 -230 95.5t-96 230.5q0 134 95.5 229.5t230.5 95.5t230 -95.5t95 -229.5zM663 1061q0 66 -40 114t-99 48q-57 0 -98.5 -47t-41.5 -115q0 -69 41.5 -116t98.5 -47t98 48t41 115z" />
    <glyph glyph-name="cent" unicode="&#xa2;" 
d="M466 1372h147v-185q267 -36 298 -364l-236 -15q-12 183 -129 183q-68 0 -97.5 -63t-29.5 -229q0 -172 30.5 -230t94.5 -58q47 0 82 32t49 148l236 -21q-45 -331 -298 -368v-216h-147v216q-172 28 -250.5 165t-78.5 316q0 220 86 357t243 148v184z" />
    <glyph glyph-name="sterling" unicode="&#xa3;" 
d="M556 835h229v-209h-201q1 -33 1 -52q0 -142 -43 -214t-109 -128h151q154 0 210 56t85 149l221 -83q-25 -110 -66.5 -179.5t-101.5 -108t-129.5 -52.5t-218.5 -14h-567v232h105q72 0 105.5 20t59 84t25.5 184q0 49 -6 106h-157v209h122q-12 102 -12 163q0 176 96.5 282
t276.5 106q278 0 345 -258l-217 -103q-32 143 -127 143q-91 0 -91 -141q0 -33 8 -123q5 -53 6 -69z" />
    <glyph glyph-name="section" unicode="&#xa7;" 
d="M939 1130l-209 -64q-34 134 -158 134q-64 0 -97 -32.5t-33 -80.5q0 -53 33 -81t165 -89q153 -70 218.5 -144t65.5 -202q0 -160 -136 -269q147 -101 147 -282q0 -167 -109 -265.5t-300 -98.5q-349 0 -418 312l233 40q31 -157 190 -157q153 0 153 136q0 67 -50 107.5
t-220 114.5q-95 42 -147 78.5t-87.5 102t-35.5 148.5q0 184 157 275q-111 94 -111 238q0 150 96.5 242.5t272.5 92.5q299 0 380 -256zM435 729q-57 -51 -57 -121q0 -54 34.5 -92.5t159.5 -94.5q53 -23 73 -33q55 48 55 121q0 53 -34 86t-146 90q-66 33 -85 44z" />
    <glyph glyph-name="bullet" unicode="&#x2022;" horiz-adv-x="1365" 
d="M964 696q0 -118 -82.5 -202t-198.5 -84t-199 84.5t-83 201.5q0 118 82.5 202t201.5 84q114 0 196.5 -83.5t82.5 -202.5z" />
    <glyph glyph-name="paragraph" unicode="&#xb6;" horiz-adv-x="1117" 
d="M958 1365v-1707h-160v1545h-97v-1545h-160v870h-71q-151 0 -237.5 36t-138 134t-51.5 254q0 143 50.5 239.5t128.5 135t260 38.5h476z" />
    <glyph glyph-name="germandbls" unicode="&#xdf;" horiz-adv-x="1116" 
d="M20 695v221h112q0 252 125 391.5t356 139.5q178 0 266 -87t88 -208q0 -230 -305 -326q16 -31 125 -77q186 -80 246 -172t60 -213q0 -177 -106.5 -281t-275.5 -104q-110 0 -224 42l68 191q82 -38 151 -38q135 0 135 135q0 64 -34 102t-131 96q-106 64 -153 122.5
t-47 137.5q0 73 37 169q191 28 191 172q0 65 -36.5 104t-100.5 39q-58 0 -95.5 -36t-48 -92.5t-10.5 -197.5v-1043h-281v813h-112z" />
    <glyph glyph-name="registered" unicode="&#xae;" horiz-adv-x="1595" 
d="M82 683q0 291 210.5 499t504.5 208q295 0 505.5 -208t210.5 -499q0 -292 -210.5 -500t-505.5 -208t-505 208t-210 500zM257 683q0 -228 158.5 -388.5t381.5 -160.5t382 161.5t159 387.5q0 227 -158.5 387.5t-382.5 160.5q-222 0 -381 -161t-159 -387zM505 1092h272
q103 0 165.5 -17.5t108.5 -79.5t46 -152q0 -153 -122 -214l152 -356h-242l-104 315h-54v-315h-222v819zM727 941v-202h51q101 0 101 105q0 97 -108 97h-44z" />
    <glyph glyph-name="copyright" unicode="&#xa9;" horiz-adv-x="1595" 
d="M82 683q0 291 210.5 499t504.5 208q295 0 505.5 -208t210.5 -499q0 -292 -210.5 -500t-505.5 -208t-505 208t-210 500zM257 683q0 -228 158.5 -388.5t381.5 -160.5t382 161.5t159 387.5q0 227 -158.5 387.5t-382.5 160.5q-222 0 -381 -161t-159 -387zM931 586l207 -12
q-8 -140 -94.5 -226.5t-228.5 -86.5q-161 0 -255 106.5t-94 308.5q0 206 89.5 317t262.5 111q292 0 316 -329l-205 -14q-7 179 -111 179q-119 0 -119 -268q0 -140 29 -193.5t90 -53.5q96 0 113 161z" />
    <glyph glyph-name="trademark" unicode="&#x2122;" horiz-adv-x="1500" 
d="M27 1324h511v-145h-168v-633h-180v633h-163v145zM600 1324h269l111 -477l126 477h261v-778h-169v648l-168 -648h-130l-153 648v-648h-147v778z" />
    <glyph glyph-name="acute" unicode="&#xb4;" horiz-adv-x="942" 
d="M372 1203l341 314l112 -167l-369 -231z" />
    <glyph glyph-name="dieresis" unicode="&#xa8;" horiz-adv-x="942" 
d="M526 1269q0 45 33.5 76.5t80.5 31.5q48 0 81 -31.5t33 -76.5q0 -48 -36 -77.5t-78 -29.5q-43 0 -78.5 30t-35.5 77zM188 1269q0 45 33.5 76.5t80.5 31.5t80.5 -31.5t33.5 -76.5q0 -47 -35.5 -77t-78.5 -30q-41 0 -77.5 29t-36.5 78z" />
    <glyph glyph-name="notequal" unicode="&#x2260;" 
d="M771 958h171v-216h-271l-56 -119h327v-216h-428l-104 -224l-196 92l62 132h-171v216h272l55 119h-327v216h428l104 224l196 -91z" />
    <glyph glyph-name="AE" unicode="&#xc6;" horiz-adv-x="1396" 
d="M454 1365h924v-234h-505v-317h398v-235h-398v-335h505v-244h-793v316h-298l-110 -316h-259zM592 537v628l-229 -628h229z" />
    <glyph glyph-name="Oslash" unicode="&#xd8;" horiz-adv-x="1151" 
d="M883 1444h157l-110 -217q141 -173 141 -544q0 -704 -496 -704q-124 0 -238 55l-62 -118h-157l107 215q-145 181 -145 552q0 703 495 703q141 0 246 -61zM698 1107q-50 52 -123 52q-99 0 -153 -89.5t-54 -386.5q0 -157 15 -248zM457 244q48 -40 127 -40q108 0 153.5 111.5
t45.5 411.5q0 96 -14 193z" />
    <glyph glyph-name="infinity" unicode="&#x221e;" horiz-adv-x="1460" 
d="M679 856q134 228 323 228q129 0 218 -92t89 -257t-89 -257t-218 -92q-189 0 -323 229q-49 -75 -129.5 -123.5t-157.5 -48.5q-107 0 -174.5 83.5t-67.5 208.5q0 126 67 209.5t175 83.5q77 0 157.5 -49t129.5 -123zM772 737q94 -148 139 -175.5t94 -27.5q79 0 118.5 62
t39.5 143t-40.5 140t-114.5 59q-112 0 -236 -201zM593 739q-100 141 -190 141q-46 0 -79.5 -37.5t-33.5 -102.5q0 -58 29.5 -101t83.5 -43q80 0 190 143z" />
    <glyph glyph-name="plusminus" unicode="&#xb1;" 
d="M636 791h306v-217h-306v-287h-225v287h-306v217h306v310h225v-310zM942 -23h-837v216h837v-216z" />
    <glyph glyph-name="lessequal" unicode="&#x2264;" 
d="M967 1308v-285l-554 -180l553 -178l1 -285l-887 336v256zM967 325v-268h-887v268h887z" />
    <glyph glyph-name="greaterequal" unicode="&#x2265;" 
d="M80 380l1 285l554 178l-555 180v285l887 -336v-256zM80 57v268h887v-268h-887z" />
    <glyph glyph-name="yen" unicode="&#xa5;" 
d="M49 1365h291l204 -555l219 555h235l-225 -532h205v-149h-269l-52 -123h321v-149h-321v-412h-270v412h-307v149h307l-52 123h-255v149h193z" />
    <glyph glyph-name="uni00B5" unicode="&#xb5;" horiz-adv-x="977" 
d="M592 1010h282v-1010h-265v138q-19 -100 -50.5 -129.5t-76.5 -29.5q-47 0 -77.5 30t-49.5 129v-480h-265v1352h281v-515q0 -142 4.5 -194t32.5 -77.5t74 -25.5q45 0 73 24.5t32.5 75.5t4.5 197v515z" />
    <glyph glyph-name="partialdiff" unicode="&#x2202;" horiz-adv-x="1012" 
d="M380 1123l-137 84q51 147 154 215.5t216 68.5q161 0 263 -136.5t102 -413.5q0 -239 -77 -487t-226.5 -365t-317.5 -117q-140 0 -226 93t-86 261q0 261 204.5 439t538.5 178q12 0 39 -1q0 178 -58 272.5t-161 94.5q-137 0 -228 -186zM815 758l-40 1q-229 0 -365 -124.5
t-136 -296.5q0 -70 39.5 -121.5t101.5 -51.5q137 0 251 160t149 433z" />
    <glyph glyph-name="summation" unicode="&#x2211;" horiz-adv-x="1460" 
d="M139 1536h1237v-164h-988l607 -803l-649 -834h1040v-161h-1264v187l620 800l-603 799v176z" />
    <glyph glyph-name="product" unicode="&#x220f;" horiz-adv-x="1685" 
d="M162 1536h1362v-1962h-191v1788h-978v-1788h-193v1962z" />
    <glyph glyph-name="uniF006" unicode="&#xf006;" horiz-adv-x="1109" 
d="M976 782v-782h-282v782h-279v-782h-282v782h-102v228h1047v-228h-102z" />
    <glyph glyph-name="integral" unicode="&#x222b;" horiz-adv-x="561" 
d="M435 1863q54 0 89.5 -34.5t35.5 -72.5q0 -44 -25.5 -74t-66.5 -30q-35 0 -76 36q-23 20 -40 20q-40 0 -40 -64q0 -42 9 -145q37 -410 37 -665q0 -67 -12 -470t-77 -493.5t-151 -90.5q-49 0 -83.5 32.5t-34.5 88.5q0 43 24.5 71t65.5 28q40 0 70 -33q28 -31 48 -31
q39 0 39 61q0 42 -9 120q-37 316 -37 831q0 589 56 752t178 163z" />
    <glyph glyph-name="ordfeminine" unicode="&#xaa;" horiz-adv-x="663" 
d="M271 969l-202 18q41 185 275 185q89 0 146.5 -28.5t78.5 -71.5t21 -148v-232q0 -116 18 -146h-179q-9 41 -12 86q-70 -98 -187 -98q-78 0 -131.5 44.5t-53.5 131.5q0 211 340 229v23q0 75 -53 75t-61 -68zM385 822q-74 -1 -100.5 -24t-26.5 -67q0 -62 50 -62q77 0 77 153
z" />
    <glyph glyph-name="ordmasculine" unicode="&#xba;" horiz-adv-x="628" 
d="M593 858q0 -324 -279 -324t-279 319t279 319t279 -314zM374 853q0 112 -15 142.5t-45 30.5q-39 0 -49.5 -44.5t-10.5 -128.5q0 -72 9 -122.5t52 -50.5q41 0 50 50.5t9 122.5z" />
    <glyph glyph-name="uni2126" unicode="&#x2126;" horiz-adv-x="1573" 
d="M462 207q-385 162 -385 605q0 307 190.5 499t515.5 192q222 0 374.5 -74t252.5 -239.5t100 -378.5q0 -432 -382 -604l330 23h72v-230h-642v243q306 147 306 541q0 244 -113 372t-296 128q-188 0 -292.5 -141.5t-104.5 -351.5q0 -184 78.5 -332.5t233.5 -215.5v-243h-645
v230h98z" />
    <glyph glyph-name="ae" unicode="&#xe6;" horiz-adv-x="1430" 
d="M1370 458h-523q-1 -30 -1 -46q0 -238 134 -238q121 0 139 169l242 -17q-60 -347 -380 -347q-210 0 -290 172q-107 -172 -325 -172q-139 0 -216 78t-77 206q0 86 39.5 167t133.5 129t327 69q2 47 2 66q0 97 -32.5 123.5t-74.5 26.5q-114 0 -125 -163l-245 28
q51 322 385 322q176 0 242 -104q97 103 250 103q144 0 232 -71.5t125.5 -185t37.5 -315.5zM1106 621q-3 223 -129 223q-121 0 -131 -223h260zM573 483q-141 -18 -180 -65t-39 -121q0 -132 94 -132q126 0 126 239q0 27 -1 79z" />
    <glyph glyph-name="oslash" unicode="&#xf8;" horiz-adv-x="942" 
d="M722 1115h134l-97 -193q123 -135 123 -417q0 -526 -410 -526q-100 0 -180 31l-64 -127h-133l98 195q-132 137 -132 427q0 525 411 525q107 0 190 -35zM564 825q-45 23 -89 23q-96 0 -129.5 -75.5t-33.5 -267.5q0 -98 10 -201zM391 176q35 -14 81 -14q98 0 128.5 81.5
t30.5 261.5q0 77 -7 176z" />
    <glyph glyph-name="questiondown" unicode="&#xbf;" horiz-adv-x="977" 
d="M662 719h-267v291l267 -1v-290zM662 114l256 -36q-5 -207 -113.5 -331t-305.5 -124q-211 0 -306.5 115.5t-95.5 267.5q0 119 46 199.5t155 178.5q77 68 93.5 103.5t16.5 131.5h240v-46q0 -128 -14.5 -182t-102.5 -139q-74 -73 -103 -125.5t-29 -126.5q0 -66 34.5 -99
t82.5 -33q145 0 146 246z" />
    <glyph glyph-name="exclamdown" unicode="&#xa1;" horiz-adv-x="698" 
d="M488 707h-279v303l279 -1v-302zM529 -356h-360l88 958h183z" />
    <glyph glyph-name="logicalnot" unicode="&#xac;" horiz-adv-x="1024" 
d="M658 0v327h-590v268h887v-595h-297z" />
    <glyph glyph-name="radical" unicode="&#x221a;" horiz-adv-x="1124" 
d="M1047 1869h74l-312 -1947l-496 1021l-198 -91l-34 64l301 151l405 -823z" />
    <glyph glyph-name="florin" unicode="&#x192;" 
d="M730 984h175l-33 -221h-174l-95 -674q-32 -229 -125.5 -309t-238.5 -80q-59 0 -119 14l35 223q41 -5 63 -5q64 0 87 34.5t40 153.5l90 643h-144l31 221h144q42 272 126 343t213 71q62 0 157 -22l-32 -222q-47 18 -86 18q-53 0 -77.5 -38t-36.5 -150z" />
    <glyph glyph-name="approxequal" unicode="&#x2248;" 
d="M177 717l-149 105q111 278 305 278q69 0 231 -70q119 -51 158 -51q79 0 147 107l149 -104q-105 -275 -320 -275q-66 0 -228 72q-101 45 -151 45q-73 0 -142 -107zM177 275l-149 105q112 278 305 278q68 0 231 -69q120 -52 158 -52q79 0 147 107l149 -104
q-104 -275 -322 -275q-63 0 -226 72q-101 46 -151 46q-73 0 -142 -108z" />
    <glyph glyph-name="uni2206" unicode="&#x2206;" horiz-adv-x="1253" 
d="M1226 0h-1200l628 1387zM990 82l-399 967l-440 -967h839z" />
    <glyph glyph-name="guillemotleft" unicode="&#xab;" horiz-adv-x="907" 
d="M807 167h-149l-210 358l210 357h149l-125 -357zM458 167h-148l-211 358l211 357h148l-125 -357z" />
    <glyph glyph-name="guillemotright" unicode="&#xbb;" horiz-adv-x="907" 
d="M99 882h149l210 -357l-210 -358h-149l125 358zM448 882h148l211 -357l-211 -358h-148l125 358z" />
    <glyph glyph-name="ellipsis" unicode="&#x2026;" horiz-adv-x="1570" 
d="M122 302h279v-302h-279v302zM645 302h280v-302h-280v302zM1169 302h279v-302h-279v302z" />
    <glyph glyph-name="uni00A0" unicode="&#xa0;" horiz-adv-x="382" 
 />
    <glyph glyph-name="Agrave" unicode="&#xc0;" 
d="M370 1365h302l390 -1365h-307l-68 282h-384l-67 -282h-276zM630 516l-137 557l-133 -557h270zM687 1535l-84 -84l-369 231l112 167z" />
    <glyph glyph-name="Atilde" unicode="&#xc3;" 
d="M370 1365h302l390 -1365h-307l-68 282h-384l-67 -282h-276zM630 516l-137 557l-133 -557h270zM763 1705l89 -66q-102 -153 -229 -153q-48 0 -126 35q-88 39 -122 39q-39 0 -95 -63l-86 67q111 143 219 143q50 0 132 -35q90 -39 122 -39q45 0 96 72z" />
    <glyph glyph-name="Otilde" unicode="&#xd5;" horiz-adv-x="1151" 
d="M1071 683q0 -704 -495 -704q-246 0 -371 179.5t-125 524.5q0 703 495 703q242 0 369 -176t127 -527zM755 683q0 276 -43 367.5t-137 91.5q-93 0 -136 -92t-43 -367q0 -270 42.5 -365t136.5 -95q93 0 136.5 91t43.5 369zM816 1705l89 -66q-102 -153 -229 -153
q-48 0 -126 35q-88 39 -122 39q-39 0 -95 -63l-86 67q111 143 219 143q50 0 132 -35q90 -39 122 -39q45 0 96 72z" />
    <glyph glyph-name="OE" unicode="&#x152;" horiz-adv-x="1605" 
d="M1587 1365v-234h-536v-317h419v-235h-419v-335h536v-244h-812q-106 -21 -180 -21q-139 0 -259.5 65t-188 236.5t-67.5 367.5q0 388 136 563t390 175q77 0 186 -21h795zM763 1088q-56 54 -153 54q-137 0 -175.5 -143.5t-38.5 -337.5q0 -438 219 -438q91 0 148 51v814z" />
    <glyph glyph-name="oe" unicode="&#x153;" horiz-adv-x="1465" 
d="M1405 458h-536q-1 -35 -1 -56q0 -136 39.5 -182t102.5 -46q127 0 144 173l251 -16q-74 -352 -395 -352q-170 0 -278 109q-93 -109 -270 -109q-200 0 -300.5 135t-100.5 391q0 525 404 525q183 0 279 -117q96 117 258 117q141 0 235 -74.5t131 -192t37 -305.5zM1140 621
v29q0 194 -132 194q-136 0 -137 -223h269zM591 505q0 191 -26.5 260t-93.5 69q-64 0 -91.5 -64.5t-27.5 -264.5q0 -185 24.5 -257t94.5 -72q71 0 95.5 73t24.5 256z" />
    <glyph glyph-name="endash" unicode="&#x2013;" horiz-adv-x="907" 
d="M81 622h744v-209h-744v209z" />
    <glyph glyph-name="emdash" unicode="&#x2014;" horiz-adv-x="1361" 
d="M76 622h1209v-209h-1209v209z" />
    <glyph glyph-name="quotedblleft" unicode="&#x201c;" horiz-adv-x="872" 
d="M738 819h-256v302l146 268h110l-113 -268h113v-302zM389 819h-256v302l146 268h110l-113 -268h113v-302z" />
    <glyph glyph-name="quotedblright" unicode="&#x201d;" horiz-adv-x="872" 
d="M133 1365h256v-302l-146 -268h-110l113 268h-113v302zM482 1365h256v-302l-146 -268h-110l112 268h-112v302z" />
    <glyph glyph-name="quoteleft" unicode="&#x2018;" horiz-adv-x="488" 
d="M372 819h-256v302l146 268h110l-113 -268h113v-302z" />
    <glyph glyph-name="quoteright" unicode="&#x2019;" horiz-adv-x="488" 
d="M116 1365h256v-302l-146 -268h-110l113 268h-113v302z" />
    <glyph glyph-name="divide" unicode="&#xf7;" 
d="M645 885h-242v270h242v-270zM942 574h-837v217h837v-217zM645 210h-242v271h242v-271z" />
    <glyph glyph-name="lozenge" unicode="&#x25ca;" horiz-adv-x="1012" 
d="M549 1422l418 -713l-418 -709h-111l-391 709l391 713h111zM495 1325l-340 -616l340 -615l359 615z" />
    <glyph glyph-name="ydieresis" unicode="&#xff;" horiz-adv-x="733" 
d="M-28 1010h282l136 -617l131 617h243l-304 -1026q-44 -147 -75 -206t-93 -97.5t-158 -38.5q-59 0 -120 16v222q42 -6 79 -6q82 0 112.5 27t57.5 118zM435 1269q0 45 33.5 76.5t80.5 31.5q48 0 81 -31.5t33 -76.5q0 -48 -36 -77.5t-78 -29.5q-43 0 -78.5 30t-35.5 77z
M97 1269q0 45 33.5 76.5t80.5 31.5t80.5 -31.5t33.5 -76.5q0 -47 -35.5 -77t-78.5 -30q-41 0 -77.5 29t-36.5 78z" />
    <glyph glyph-name="Ydieresis" unicode="&#x178;" horiz-adv-x="907" 
d="M-58 1365h330l193 -498l206 498h293l-379 -788v-577h-300v577zM509 1601q0 45 33.5 76.5t80.5 31.5q48 0 81 -31.5t33 -76.5q0 -48 -36 -77.5t-78 -29.5q-43 0 -78.5 30t-35.5 77zM171 1601q0 45 33.5 76.5t80.5 31.5t80.5 -31.5t33.5 -76.5q0 -47 -35.5 -77t-78.5 -30
q-41 0 -77.5 29t-36.5 78z" />
    <glyph glyph-name="fraction" unicode="&#x2215;" horiz-adv-x="176" 
d="M329 1365h165l-651 -1365h-161z" />
    <glyph glyph-name="Euro" unicode="&#x20ac;" 
d="M1034 1014l-256 -66q-37 195 -186 195q-157 0 -186 -238h219v-153h-232l-2 -25v-96h234v-154h-224q32 -256 187 -256q76 0 118.5 41t69.5 137l256 -57q-52 -193 -152.5 -280t-291.5 -87q-192 0 -313 129t-158 373h-109v154h96q-2 13 -2 45l2 76h-96v153h115
q43 235 162 359.5t303 124.5q176 0 292 -96t154 -279z" />
    <glyph glyph-name="guilsinglleft" unicode="&#x2039;" horiz-adv-x="558" 
d="M458 167h-148l-211 358l211 357h148l-125 -357z" />
    <glyph glyph-name="guilsinglright" unicode="&#x203a;" horiz-adv-x="559" 
d="M100 882h149l210 -357l-210 -358h-149l125 358z" />
    <glyph glyph-name="fi" unicode="&#xfb01;" horiz-adv-x="1081" 
d="M422 1010h178v-222h-178v-788h-270v788h-115v222h115q3 158 21.5 222.5t89 125.5t219.5 61q57 0 113 -8v-220q-29 2 -47 2q-72 0 -95 -24.5t-27 -51.5t-4 -107zM980 1093h-286v279h286v-279zM696 1010h282v-1010h-282v1010z" />
    <glyph glyph-name="fl" unicode="&#xfb02;" horiz-adv-x="1081" 
d="M422 1010h178v-222h-178v-788h-270v788h-115v222h115q3 158 21.5 222.5t89 125.5t219.5 61q57 0 113 -8v-220q-29 2 -47 2q-72 0 -95 -24.5t-27 -51.5t-4 -107zM696 1365h282v-1365h-282v1365z" />
    <glyph glyph-name="daggerdbl" unicode="&#x2021;" 
d="M388 1365h271v-366h283v-235h-283v-504h283v-236h-283v-366h-271v366h-283v236h283v504h-283v235h283v366z" />
    <glyph glyph-name="periodcentered" unicode="&#x2219;" horiz-adv-x="523" 
d="M122 677h279v-303l-279 1v302z" />
    <glyph glyph-name="quotesinglbase" unicode="&#x201a;" horiz-adv-x="489" 
d="M116 302h256v-302l-146 -268h-110l113 268h-113v302z" />
    <glyph glyph-name="quotedblbase" unicode="&#x201e;" horiz-adv-x="872" 
d="M133 302h256v-302l-146 -267h-110l113 267h-113v302zM482 302h256v-302l-146 -267h-110l112 267h-112v302z" />
    <glyph glyph-name="perthousand" unicode="&#x2030;" horiz-adv-x="1989" 
d="M596 1021q0 -171 -72 -261t-198 -90q-125 0 -197.5 88t-72.5 263q0 172 71.5 261.5t198.5 89.5t198.5 -90t71.5 -261zM401 1021q0 128 -19.5 164t-55.5 36q-40 0 -58 -40t-18 -160q0 -128 19.5 -164t56.5 -36q40 0 57.5 41.5t17.5 158.5zM928 1365h154l-644 -1365h-155z
M1305 344q0 -172 -72 -261.5t-198 -89.5t-198 90t-72 261q0 172 72.5 261.5t197.5 89.5q124 0 197 -88t73 -263zM1111 344q0 128 -19.5 164t-56.5 36q-40 0 -57.5 -41t-17.5 -159q0 -127 19.5 -163.5t55.5 -36.5q41 0 58.5 41.5t17.5 158.5zM1927 344q0 -171 -72 -261
t-198 -90t-198 89.5t-72 261.5q0 173 72.5 262t197.5 89q124 0 197 -88t73 -263zM1733 344q0 128 -20 164t-56 36q-40 0 -58 -39.5t-18 -160.5q0 -128 20 -164t56 -36q41 0 58.5 42.5t17.5 157.5z" />
    <glyph glyph-name="Acircumflex" unicode="&#xc2;" 
d="M370 1365h302l390 -1365h-307l-68 282h-384l-67 -282h-276zM630 516l-137 557l-133 -557h270zM120 1488l401 313l401 -313h-218l-183 118l-183 -118h-218z" />
    <glyph glyph-name="Ecircumflex" unicode="&#xca;" horiz-adv-x="977" 
d="M129 1365h830v-234h-530v-317h412v-235h-412v-335h530v-244h-830v1365zM148 1488l401 313l401 -313h-218l-183 118l-183 -118h-218z" />
    <glyph glyph-name="Aacute" unicode="&#xc1;" 
d="M370 1365h302l390 -1365h-307l-68 282h-384l-67 -282h-276zM630 516l-137 557l-133 -557h270zM378 1535l341 314l112 -167l-369 -231z" />
    <glyph glyph-name="Edieresis" unicode="&#xcb;" horiz-adv-x="977" 
d="M129 1365h830v-234h-530v-317h412v-235h-412v-335h530v-244h-830v1365zM598 1601q0 45 33.5 76.5t80.5 31.5q48 0 81 -31.5t33 -76.5q0 -48 -36 -77.5t-78 -29.5q-43 0 -78.5 30t-35.5 77zM260 1601q0 45 33.5 76.5t80.5 31.5t80.5 -31.5t33.5 -76.5q0 -47 -35.5 -77
t-78.5 -30q-41 0 -77.5 29t-36.5 78z" />
    <glyph glyph-name="Egrave" unicode="&#xc8;" horiz-adv-x="977" 
d="M129 1365h830v-234h-530v-317h412v-235h-412v-335h530v-244h-830v1365zM718 1535l-84 -84l-369 231l112 167z" />
    <glyph glyph-name="Iacute" unicode="&#xcd;" horiz-adv-x="558" 
d="M129 1365h300v-1365h-300v1365zM95 1535l341 314l112 -167l-369 -231z" />
    <glyph glyph-name="Icircumflex" unicode="&#xce;" horiz-adv-x="558" 
d="M129 1365h300v-1365h-300v1365zM-122 1464l401 313l401 -313h-218l-183 118l-183 -118h-218z" />
    <glyph glyph-name="Idieresis" unicode="&#xcf;" horiz-adv-x="558" 
d="M129 1365h300v-1365h-300v1365zM334 1601q0 45 33.5 76.5t80.5 31.5q48 0 81 -31.5t33 -76.5q0 -48 -36 -77.5t-78 -29.5q-43 0 -78.5 30t-35.5 77zM-4 1601q0 45 33.5 76.5t80.5 31.5t80.5 -31.5t33.5 -76.5q0 -47 -35.5 -77t-78.5 -30q-41 0 -77.5 29t-36.5 78z" />
    <glyph glyph-name="Igrave" unicode="&#xcc;" horiz-adv-x="558" 
d="M129 1365h300v-1365h-300v1365zM459 1535l-84 -84l-369 231l112 167z" />
    <glyph glyph-name="Oacute" unicode="&#xd3;" horiz-adv-x="1151" 
d="M1071 683q0 -704 -495 -704q-246 0 -371 179.5t-125 524.5q0 703 495 703q242 0 369 -176t127 -527zM755 683q0 276 -43 367.5t-137 91.5q-93 0 -136 -92t-43 -367q0 -270 42.5 -365t136.5 -95q93 0 136.5 91t43.5 369zM404 1554l341 314l112 -167l-369 -231z" />
    <glyph glyph-name="Ocircumflex" unicode="&#xd4;" horiz-adv-x="1151" 
d="M1071 683q0 -704 -495 -704q-246 0 -371 179.5t-125 524.5q0 703 495 703q242 0 369 -176t127 -527zM755 683q0 276 -43 367.5t-137 91.5q-93 0 -136 -92t-43 -367q0 -270 42.5 -365t136.5 -95q93 0 136.5 91t43.5 369zM182 1464l401 313l401 -313h-218l-183 118
l-183 -118h-218z" />
    <glyph glyph-name="Ograve" unicode="&#xd2;" horiz-adv-x="1151" 
d="M1071 683q0 -704 -495 -704q-246 0 -371 179.5t-125 524.5q0 703 495 703q242 0 369 -176t127 -527zM755 683q0 276 -43 367.5t-137 91.5q-93 0 -136 -92t-43 -367q0 -270 42.5 -365t136.5 -95q93 0 136.5 91t43.5 369zM747 1554l-84 -84l-369 231l112 167z" />
    <glyph glyph-name="Uacute" unicode="&#xda;" horiz-adv-x="1186" 
d="M129 1365h300v-780q0 -165 15 -230t62.5 -98.5t116.5 -33.5q75 0 119 37t54 98t10 227v780h251v-768q0 -230 -26.5 -343t-135 -194t-298.5 -81q-178 0 -280 59.5t-145 167t-43 379.5v780zM437 1535l341 314l112 -167l-369 -231z" />
    <glyph glyph-name="Ucircumflex" unicode="&#xdb;" horiz-adv-x="1186" 
d="M129 1365h300v-780q0 -165 15 -230t62.5 -98.5t116.5 -33.5q75 0 119 37t54 98t10 227v780h251v-768q0 -230 -26.5 -343t-135 -194t-298.5 -81q-178 0 -280 59.5t-145 167t-43 379.5v780zM116 1481l401 313l401 -313h-218l-183 118l-183 -118h-218z" />
    <glyph glyph-name="Ugrave" unicode="&#xd9;" horiz-adv-x="1186" 
d="M129 1365h300v-780q0 -165 15 -230t62.5 -98.5t116.5 -33.5q75 0 119 37t54 98t10 227v780h251v-768q0 -230 -26.5 -343t-135 -194t-298.5 -81q-178 0 -280 59.5t-145 167t-43 379.5v780zM778 1535l-84 -84l-369 231l112 167z" />
    <glyph glyph-name="dotlessi" unicode="&#x131;" horiz-adv-x="488" 
d="M103 1010h282v-1010h-282v1010z" />
    <glyph glyph-name="circumflex" unicode="&#x2c6;" horiz-adv-x="942" 
d="M70 1132l401 313l401 -313h-218l-183 118l-183 -118h-218z" />
    <glyph glyph-name="tilde" unicode="&#x2dc;" horiz-adv-x="942" 
d="M711 1385l89 -66q-102 -153 -229 -153q-48 0 -126 35q-88 39 -122 39q-39 0 -95 -63l-86 67q111 143 219 143q50 0 132 -35q90 -39 122 -39q45 0 96 72z" />
    <glyph glyph-name="macron" unicode="&#x2c9;" horiz-adv-x="942" 
d="M190 1343h562v-147h-562v147z" />
    <glyph glyph-name="breve" unicode="&#x2d8;" horiz-adv-x="942" 
d="M140 1401h161q42 -105 170 -105q127 0 170 105h161q-71 -251 -331 -251q-258 0 -331 251z" />
    <glyph glyph-name="dotaccent" unicode="&#x2d9;" horiz-adv-x="942" 
d="M344 1269q0 52 37.5 88.5t89.5 36.5q53 0 90.5 -37t37.5 -88q0 -53 -38.5 -88.5t-88.5 -35.5q-51 0 -89.5 35.5t-38.5 88.5z" />
    <glyph glyph-name="ring" unicode="&#x2da;" horiz-adv-x="942" 
d="M278 1301q0 83 58 139t135 56t135 -55.5t58 -139.5q0 -86 -60.5 -139t-132.5 -53t-132.5 53.5t-60.5 138.5zM394 1302q0 -36 24.5 -58.5t52.5 -22.5q29 0 53 22.5t24 58.5q0 35 -23.5 58.5t-53.5 23.5t-53.5 -23.5t-23.5 -58.5z" />
    <glyph glyph-name="cedilla" unicode="&#xb8;" horiz-adv-x="942" 
d="M427 0h116l-40 -102q26 3 39 3q70 0 116.5 -43t46.5 -116q0 -76 -55 -123.5t-151 -47.5q-106 0 -220 72l33 83q97 -50 161 -50q73 0 73 61q0 38 -34 62t-83 24q-26 0 -67 -5z" />
    <glyph glyph-name="hungarumlaut" unicode="&#x2dd;" horiz-adv-x="942" 
d="M507 1469l114 -124l-286 -227l-76 76zM820 1469l114 -124l-286 -227l-76 75z" />
    <glyph glyph-name="ogonek" unicode="&#x2db;" horiz-adv-x="942" 
d="M628 0q-91 -85 -91 -160q0 -107 131 -107q46 0 66 4l21 -94q-63 -16 -117 -16q-133 0 -195.5 52t-62.5 129q0 111 141 192h107z" />
    <glyph glyph-name="caron" unicode="&#x2c7;" horiz-adv-x="942" 
d="M70 1426h218l183 -119l183 119h218l-401 -313z" />
    <glyph glyph-name="Lslash" unicode="&#x141;" horiz-adv-x="872" 
d="M129 1365h300v-475l224 223v-241l-224 -223v-393h440v-256h-740v444l-116 -117v241l116 118v679z" />
    <glyph glyph-name="lslash" unicode="&#x142;" horiz-adv-x="558" 
d="M138 1365h281v-460l123 118v-200l-123 -117v-706h-281v520l-123 -124v199l123 124v646z" />
    <glyph glyph-name="Scaron" unicode="&#x160;" 
d="M964 1068l-248 -95q-53 169 -194 169q-66 0 -104.5 -37.5t-38.5 -87.5q0 -58 45.5 -92.5t190.5 -90.5q132 -49 207.5 -97t122 -130.5t46.5 -191.5q0 -191 -131.5 -313.5t-352.5 -122.5q-371 0 -474 375l262 75q48 -206 219 -206q78 0 126.5 40.5t48.5 106.5
q0 50 -34 89.5t-156 83.5q-157 56 -234 101.5t-127 130t-50 192.5q0 184 118.5 301.5t313.5 117.5q356 0 444 -318zM137 1762h218l183 -119l183 119h218l-401 -313z" />
    <glyph glyph-name="scaron" unicode="&#x161;" horiz-adv-x="837" 
d="M770 767l-201 -60q-40 137 -148 137q-88 0 -88 -88q0 -50 33 -76t136 -62q116 -41 170 -72t91 -93.5t37 -143.5q0 -140 -101 -235t-282 -95q-341 0 -378 301l224 36q28 -151 159 -151q112 0 112 94q0 50 -33 76t-128 56q-174 56 -239 135t-65 183q0 146 102.5 234
t256.5 88q269 0 342 -264zM28 1426h218l183 -119l183 119h218l-401 -313z" />
    <glyph glyph-name="Zcaron" unicode="&#x17d;" horiz-adv-x="942" 
d="M44 1365h877v-213l-571 -908h589v-244h-937v209l575 912h-533v244zM90 1762h218l183 -119l183 119h218l-401 -313z" />
    <glyph glyph-name="zcaron" unicode="&#x17e;" horiz-adv-x="733" 
d="M76 1010h630v-181l-375 -629h385v-200h-675v200l366 610h-331v200zM-1 1426h218l183 -119l183 119h218l-401 -313z" />
    <glyph glyph-name="brokenbar" unicode="&#xa6;" horiz-adv-x="1024" 
d="M358 1365h307v-719h-307v719zM358 314h307v-655h-307v655z" />
    <glyph glyph-name="Eth" unicode="&#xd0;" horiz-adv-x="1152" 
d="M129 1365h323q211 0 342.5 -57t210 -209.5t78.5 -409.5q0 -184 -48 -327t-126 -224.5t-176 -109.5t-245 -28h-359v589h-116v204h116v572zM429 1131v-338h200v-204h-200v-354h51q104 0 161 39.5t91.5 140t34.5 287.5q0 174 -38 268t-95 127.5t-154 33.5h-51z" />
    <glyph glyph-name="eth" unicode="&#xf0;" horiz-adv-x="942" 
d="M563 1366l132 80l61 -103l-128 -76q254 -405 254 -779q0 -230 -97.5 -369.5t-307.5 -139.5q-416 0 -416 526q0 260 100.5 392t244.5 132q73 0 132 -46q-34 101 -80 181l-139 -83l-61 102l141 85l-70 113l159 96zM591 505q0 193 -26.5 261t-92.5 68q-64 0 -92 -64.5
t-28 -264.5q0 -185 24 -257t96 -72q69 0 94 71.5t25 257.5z" />
    <glyph glyph-name="Yacute" unicode="&#xdd;" horiz-adv-x="907" 
d="M-58 1365h330l193 -498l206 498h293l-379 -788v-577h-300v577zM305 1535l341 314l112 -167l-369 -231z" />
    <glyph glyph-name="yacute" unicode="&#xfd;" horiz-adv-x="733" 
d="M-28 1010h282l136 -617l131 617h243l-304 -1026q-44 -147 -75 -206t-93 -97.5t-158 -38.5q-59 0 -120 16v222q42 -6 79 -6q82 0 112.5 27t57.5 118zM236 1203l341 314l112 -167l-369 -231z" />
    <glyph glyph-name="Thorn" unicode="&#xde;" 
d="M129 1365h300v-186h93q179 0 278 -30.5t165.5 -136t66.5 -260.5q0 -150 -54 -248t-149.5 -141.5t-293.5 -43.5h-106v-319h-300v1365zM429 958v-404h93q121 0 157.5 55.5t36.5 149.5q0 77 -27.5 124.5t-64 61t-102.5 13.5h-93z" />
    <glyph glyph-name="thorn" unicode="&#xfe;" horiz-adv-x="977" 
d="M104 1365h277v-483q85 141 219 141q139 0 228 -129t89 -372q0 -266 -90 -401t-252 -135q-116 0 -189 89l-5 -417h-277v1707zM381 413q0 -145 23.5 -188.5t95.5 -43.5q64 0 95 58t31 281q0 194 -27 256t-86 62q-64 0 -98 -59.5t-34 -174.5v-191z" />
    <glyph glyph-name="minus" unicode="&#x2212;" 
d="M942 574h-837v217h837v-217z" />
    <glyph glyph-name="multiply" unicode="&#xd7;" 
d="M523 842l233 233l160 -160l-233 -232l233 -233l-160 -159l-233 232l-233 -232l-159 159l232 233l-232 232l159 160z" />
    <glyph glyph-name="onesuperior" unicode="&#xb9;" horiz-adv-x="698" 
d="M329 1372h171v-665h144v-161h-516v161h147v412q-72 -57 -147 -88v190q123 56 201 151z" />
    <glyph glyph-name="twosuperior" unicode="&#xb2;" horiz-adv-x="698" 
d="M239 1053l-208 37q44 287 308 287q142 0 215.5 -72.5t73.5 -171.5q0 -85 -63 -176t-289 -224h365l-17 -187h-590v178q246 190 302.5 262.5t56.5 136.5q0 81 -64 81q-79 0 -90 -151z" />
    <glyph glyph-name="threesuperior" unicode="&#xb3;" horiz-adv-x="698" 
d="M234 1112l-200 33q65 232 308 232q132 0 203.5 -62.5t71.5 -157.5q0 -121 -133 -180q150 -52 150 -197q0 -112 -83 -179t-219 -67q-282 0 -316 263l203 30q8 -120 97 -120q88 0 88 91q0 97 -118 97h-70v150h70q108 0 108 85q0 81 -73 81q-69 0 -87 -99z" />
    <glyph glyph-name="onehalf" unicode="&#xbd;" horiz-adv-x="1640" 
d="M311 1372h171v-665h144v-161h-516v161h147v412q-72 -57 -147 -88v190q123 56 201 151zM1062 1365h165l-651 -1365h-161zM1140 507l-208 37q44 287 308 287q142 0 215.5 -72.5t73.5 -171.5q0 -85 -63 -176t-289 -224h365l-17 -187h-590v178q246 190 302.5 262.5
t56.5 136.5q0 81 -64 81q-79 0 -90 -151z" />
    <glyph glyph-name="onequarter" unicode="&#xbc;" horiz-adv-x="1640" 
d="M306 1372h171v-665h144v-161h-516v161h147v412q-72 -57 -147 -88v190q123 56 201 151zM1062 1365h165l-651 -1365h-161zM1242 831h234v-479h99v-167h-99v-185h-224v185h-314v155zM1273 330v313l-183 -313h183z" />
    <glyph glyph-name="threequarters" unicode="&#xbe;" horiz-adv-x="1640" 
d="M280 1112l-200 33q65 232 308 232q132 0 203.5 -62.5t71.5 -157.5q0 -121 -133 -180q150 -52 150 -197q0 -112 -83 -179t-219 -67q-282 0 -316 263l203 30q8 -120 97 -120q88 0 88 91q0 97 -118 97h-70v150h70q108 0 108 85q0 81 -73 81q-69 0 -87 -99zM1109 1365h165
l-651 -1365h-161zM1253 831h234v-479h99v-167h-99v-185h-224v185h-314v155zM1284 330v313l-183 -313h183z" />
    <glyph glyph-name="franc" unicode="&#x20a3;" horiz-adv-x="907" 
d="M429 381h198v-205h-198v-176h-300v176h-118v205h118v984h810v-234h-510v-357h393v-234h-393v-159z" />
    <glyph glyph-name="Gbreve" unicode="&#x11e;" horiz-adv-x="1187" 
d="M608 728h474v-728h-127l-39 156q-110 -177 -330 -177q-233 0 -369.5 183.5t-136.5 493.5q0 337 134.5 533.5t397.5 196.5q419 0 470 -468l-270 -44q-28 268 -194 268q-101 0 -161.5 -99t-60.5 -375q0 -245 59 -345t173 -100q183 0 184 270h-204v235zM287 1733h161
q42 -105 170 -105q127 0 170 105h161q-71 -251 -331 -251q-258 0 -331 251z" />
    <glyph glyph-name="gbreve" unicode="&#x11f;" horiz-adv-x="942" 
d="M963 1176v-184q-32 8 -61 8q-88 0 -107 -91q75 -79 75 -202q0 -137 -102 -219.5t-264 -82.5q-62 0 -131 17q-66 -36 -66 -83q0 -38 37 -50t202 -21q152 -9 227.5 -30t126 -86t50.5 -171q0 -338 -493 -338q-414 0 -414 241q0 133 165 188q-132 62 -132 175q0 130 174 222
q-150 74 -150 252q0 151 103.5 230t276.5 79q115 0 216 -44q11 108 54 154t135 46q44 0 78 -10zM579 716q0 163 -89 163q-54 0 -76.5 -39.5t-22.5 -130.5q0 -153 97 -153q49 0 70 36t21 124zM364 44q-89 -41 -89 -122q0 -102 232 -102q199 0 199 106q0 39 -21.5 63.5t-55 31
t-140.5 11.5q-63 4 -125 12zM158 1401h161q42 -105 170 -105q127 0 170 105h161q-71 -251 -331 -251q-258 0 -331 251z" />
    <glyph glyph-name="Idotaccent" unicode="&#x130;" horiz-adv-x="558" 
d="M129 1365h300v-1365h-300v1365zM152 1601q0 52 37.5 88.5t89.5 36.5q53 0 90.5 -37t37.5 -88q0 -53 -38.5 -88.5t-88.5 -35.5q-51 0 -89.5 35.5t-38.5 88.5z" />
    <glyph glyph-name="Scedilla" unicode="&#x15e;" 
d="M720 -266q0 -78 -57 -127t-155 -49q-110 0 -228 74l35 91q97 -52 166 -52q65 0 65 58q0 36 -30.5 60t-87.5 24l-64 -1l63 171q-310 44 -394 371l262 75q48 -206 219 -206q78 0 126.5 40.5t48.5 106.5q0 50 -34 89.5t-156 83.5q-157 56 -234 101.5t-127 130t-50 192.5
q0 184 118.5 301.5t313.5 117.5q356 0 444 -318l-248 -95q-53 169 -194 169q-65 0 -104 -37t-39 -88q0 -58 45.5 -92.5t190.5 -90.5q132 -49 207.5 -97t122 -130.5t46.5 -191.5q0 -183 -121.5 -304t-328.5 -132l-30 -84q26 3 40 3q76 0 122.5 -46t46.5 -118z" />
    <glyph glyph-name="scedilla" unicode="&#x15f;" horiz-adv-x="837" 
d="M564 -381.5q-55 -47.5 -152 -47.5q-105 0 -220 72l34 83q97 -50 160 -50q73 0 73 61q0 38 -33.5 62t-83.5 24q-26 0 -67 -5l60 167q-265 39 -296 295l224 36q28 -151 159 -151q112 0 112 94q0 50 -33 76t-128 56q-174 56 -239 135t-65 183q0 146 102.5 234t256.5 88
q269 0 342 -264l-201 -60q-40 137 -148 137q-88 0 -88 -88q0 -50 33 -76t136 -62q116 -41 170 -72t91 -93.5t37 -143.5q0 -131 -91.5 -225.5t-260.5 -104.5l-32 -81q26 3 40 3q69 0 116 -43t47 -116q0 -76 -55 -123.5z" />
    <glyph glyph-name="Cacute" unicode="&#x106;" horiz-adv-x="1117" 
d="M793 497l277 -17q-15 -222 -141 -361.5t-333 -139.5q-252 0 -384 187t-132 515q0 331 131 518t389 187q427 0 465 -528l-274 -20q-11 304 -190 304q-94 0 -149.5 -98t-55.5 -380q0 -252 51 -346.5t153 -94.5q164 0 193 274zM426 1535l341 314l112 -167l-369 -231z" />
    <glyph glyph-name="cacute" unicode="&#x107;" horiz-adv-x="907" 
d="M858 638l-262 -10q-6 93 -30 140.5t-81 47.5q-142 0 -142 -298q0 -173 34.5 -242t102.5 -69q106 0 116 187l262 -17q-35 -398 -396 -398q-195 0 -298.5 131.5t-103.5 391.5q0 258 108.5 393t304.5 135q354 0 385 -392zM332 1203l341 314l112 -167l-369 -231z" />
    <glyph glyph-name="Ccaron" unicode="&#x10c;" horiz-adv-x="1117" 
d="M793 497l277 -17q-15 -222 -141 -361.5t-333 -139.5q-252 0 -384 187t-132 515q0 331 131 518t389 187q427 0 465 -528l-274 -20q-11 304 -190 304q-94 0 -149.5 -98t-55.5 -380q0 -252 51 -346.5t153 -94.5q164 0 193 274zM195 1758h218l183 -119l183 119h218l-401 -313
z" />
    <glyph glyph-name="ccaron" unicode="&#x10d;" horiz-adv-x="907" 
d="M832 638l-262 -10q-6 93 -30 140.5t-81 47.5q-142 0 -142 -298q0 -173 34.5 -242t102.5 -69q106 0 116 187l262 -17q-35 -398 -396 -398q-195 0 -298.5 131.5t-103.5 391.5q0 258 108.5 393t304.5 135q354 0 385 -392zM56 1426h218l183 -119l183 119h218l-401 -313z" />
    <glyph glyph-name="dcroat" unicode="&#x111;" horiz-adv-x="977" 
d="M984 1111h-109v-1111h-261v167q-64 -181 -230 -181q-162 0 -242.5 142.5t-80.5 372.5q0 265 92 393.5t242 128.5q142 0 203 -107v195h-198v137h198v117h277v-117h109v-137zM598 587q0 149 -31.5 199.5t-91.5 50.5q-71 0 -96.5 -70t-25.5 -290q0 -164 28 -230t92 -66
q54 0 89.5 44.5t35.5 182.5v179z" />
    <glyph glyph-name="uni00AD" unicode="&#xad;" horiz-adv-x="558" 
d="M76 628h407v-221h-407v221z" />
    <glyph glyph-name="uni00AF" unicode="&#xaf;" horiz-adv-x="1024" 
d="M0 1664h1024v-182h-1024v182z" />
    <glyph glyph-name="uni00B7" unicode="&#xb7;" horiz-adv-x="523" 
d="M122 677h279v-303l-279 1v302z" />
    <glyph glyph-name="Amacron" unicode="&#x100;" 
d="M370 1365h302l390 -1365h-307l-68 282h-384l-67 -282h-276zM630 516l-137 557l-133 -557h270zM229 1675h562v-147h-562v147z" />
    <glyph glyph-name="amacron" unicode="&#x101;" horiz-adv-x="977" 
d="M374 689l-267 26q19 152 129.5 234t278.5 82q142 0 228 -54.5t108.5 -126.5t22.5 -223v-403q0 -188 17 -224h-261q-14 41 -14 155q-93 -176 -277 -176q-118 0 -192 70.5t-74 205.5q0 169 112 261.5t408 110.5v38q0 101 -20.5 140t-79.5 39q-108 0 -119 -155zM593 483
q-123 -14 -175.5 -54.5t-52.5 -136.5q0 -128 94 -128q51 0 92.5 57.5t41.5 211.5v50zM229 1343h562v-147h-562v147z" />
    <glyph glyph-name="Abreve" unicode="&#x102;" 
d="M370 1365h302l390 -1365h-307l-68 282h-384l-67 -282h-276zM630 516l-137 557l-133 -557h270zM179 1742h161q42 -105 170 -105q127 0 170 105h161q-71 -251 -331 -251q-258 0 -331 251z" />
    <glyph glyph-name="abreve" unicode="&#x103;" horiz-adv-x="977" 
d="M374 689l-267 26q19 152 129.5 234t278.5 82q142 0 228 -54.5t108.5 -126.5t22.5 -223v-403q0 -188 17 -224h-261q-14 41 -14 155q-93 -176 -277 -176q-118 0 -192 70.5t-74 205.5q0 169 112 261.5t408 110.5v38q0 101 -20.5 140t-79.5 39q-108 0 -119 -155zM593 483
q-123 -14 -175.5 -54.5t-52.5 -136.5q0 -128 94 -128q51 0 92.5 57.5t41.5 211.5v50zM179 1401h161q42 -105 170 -105q127 0 170 105h161q-71 -251 -331 -251q-258 0 -331 251z" />
    <glyph glyph-name="Aogonek" unicode="&#x104;" 
d="M806 -198q0 116 146 198h-197l-68 282h-384l-67 -282h-276l410 1365h302l390 -1365q-94 -87 -94 -165q0 -111 137 -111q44 0 66 5l22 -97q-67 -17 -122 -17q-134 0 -199.5 53t-65.5 134zM630 516l-137 557l-133 -557h270z" />
    <glyph glyph-name="aogonek" unicode="&#x105;" horiz-adv-x="977" 
d="M374 689l-267 26q19 153 130 234t275 81q136 0 220 -45.5t113 -119t29 -238.5v-403q0 -188 17 -224q-91 -85 -91 -160q0 -107 131 -107q45 0 66 4l21 -94q-65 -16 -117 -16q-133 0 -195.5 51.5t-62.5 129.5q0 112 141 192h-154q-14 41 -14 155q-93 -176 -277 -176
q-118 0 -192 70.5t-74 205.5q0 169 112 261.5t408 110.5v38q0 101 -20.5 140t-79.5 39q-108 0 -119 -155zM593 483q-123 -14 -175.5 -54.5t-52.5 -136.5q0 -128 94 -128q51 0 92.5 57.5t41.5 211.5v50z" />
    <glyph glyph-name="Ccircumflex" unicode="&#x108;" horiz-adv-x="1117" 
d="M793 497l277 -17q-15 -222 -141 -361.5t-333 -139.5q-252 0 -384 187t-132 515q0 331 131 518t389 187q427 0 465 -528l-274 -20q-11 304 -190 304q-94 0 -149.5 -98t-55.5 -380q0 -252 51 -346.5t153 -94.5q164 0 193 274zM195 1488l401 313l401 -313h-218l-183 118
l-183 -118h-218z" />
    <glyph glyph-name="ccircumflex" unicode="&#x109;" horiz-adv-x="907" 
d="M858 638l-262 -10q-6 93 -30 140.5t-81 47.5q-142 0 -142 -298q0 -173 34.5 -242t102.5 -69q106 0 116 187l262 -17q-35 -398 -396 -398q-195 0 -298.5 131.5t-103.5 391.5q0 258 108.5 393t304.5 135q354 0 385 -392zM78 1132l401 313l401 -313h-218l-183 118l-183 -118
h-218z" />
    <glyph glyph-name="Cdotaccent" unicode="&#x10a;" horiz-adv-x="1117" 
d="M793 497l277 -17q-15 -222 -141 -361.5t-333 -139.5q-252 0 -384 187t-132 515q0 331 131 518t389 187q427 0 465 -528l-274 -20q-11 304 -190 304q-94 0 -149.5 -98t-55.5 -380q0 -252 51 -346.5t153 -94.5q164 0 193 274zM465 1601q0 52 37.5 88.5t89.5 36.5
q53 0 90.5 -37t37.5 -88q0 -53 -38.5 -88.5t-88.5 -35.5q-51 0 -89.5 35.5t-38.5 88.5z" />
    <glyph glyph-name="cdotaccent" unicode="&#x10b;" horiz-adv-x="907" 
d="M858 638l-262 -10q-6 93 -30 140.5t-81 47.5q-142 0 -142 -298q0 -173 34.5 -242t102.5 -69q106 0 116 187l262 -17q-35 -398 -396 -398q-195 0 -298.5 131.5t-103.5 391.5q0 258 108.5 393t304.5 135q354 0 385 -392zM356 1269q0 52 37.5 88.5t89.5 36.5q53 0 90.5 -37
t37.5 -88q0 -53 -38.5 -88.5t-88.5 -35.5q-51 0 -89.5 35.5t-38.5 88.5z" />
    <glyph glyph-name="Dcaron" unicode="&#x10e;" horiz-adv-x="1151" 
d="M129 1365h323q210 0 341.5 -56.5t210.5 -208.5t79 -411q0 -184 -48 -326.5t-126 -224.5t-176 -110t-245 -28h-359v1365zM429 1131v-896h51q104 0 161 40t91 139.5t34 287.5q0 174 -37.5 268t-94 127.5t-154.5 33.5h-51zM137 1758h218l183 -119l183 119h218l-401 -313z
" />
    <glyph glyph-name="dcaron" unicode="&#x10f;" horiz-adv-x="1191" 
d="M598 1365h277v-1365h-261v167q-64 -181 -230 -181q-163 0 -243 142t-80 373q0 263 91.5 393t244.5 130q141 0 201 -108v449zM598 587q0 149 -31.5 199.5t-91.5 50.5q-71 0 -96.5 -70t-25.5 -290q0 -164 28 -230t92 -66q54 0 89.5 44.5t35.5 182.5v179zM996 1365h209
l-160 -400h-105z" />
    <glyph glyph-name="Dcroat" unicode="&#x110;" horiz-adv-x="1152" 
d="M129 1365h323q211 0 342.5 -57t210 -209.5t78.5 -409.5q0 -184 -48 -327t-126 -224.5t-176 -109.5t-245 -28h-359v589h-116v204h116v572zM429 1131v-338h200v-204h-200v-354h51q104 0 161 39.5t91.5 140t34.5 287.5q0 174 -38 268t-95 127.5t-154 33.5h-51z" />
    <glyph glyph-name="Emacron" unicode="&#x112;" horiz-adv-x="977" 
d="M129 1365h830v-234h-530v-317h412v-235h-412v-335h530v-244h-830v1365zM262 1675h562v-147h-562v147z" />
    <glyph glyph-name="emacron" unicode="&#x113;" horiz-adv-x="942" 
d="M881 458h-530v-56q0 -136 37 -182t97 -46q129 0 145 173l251 -16q-67 -352 -401 -352q-206 0 -313 139t-107 372q0 263 113.5 401.5t304.5 138.5q172 0 287.5 -122.5t115.5 -449.5zM615 621q1 18 1 28q0 195 -132 195q-130 0 -131 -223h262zM210 1343h562v-147h-562v147z
" />
    <glyph glyph-name="Ebreve" unicode="&#x114;" horiz-adv-x="977" 
d="M129 1365h830v-234h-530v-317h412v-235h-412v-335h530v-244h-830v1365zM212 1742h161q42 -105 170 -105q127 0 170 105h161q-71 -251 -331 -251q-258 0 -331 251z" />
    <glyph glyph-name="ebreve" unicode="&#x115;" horiz-adv-x="942" 
d="M881 458h-530v-56q0 -136 37 -182t97 -46q129 0 145 173l251 -16q-67 -352 -401 -352q-206 0 -313 139t-107 372q0 263 113.5 401.5t304.5 138.5q172 0 287.5 -122.5t115.5 -449.5zM615 621q1 18 1 28q0 195 -132 195q-130 0 -131 -223h262zM160 1401h161
q42 -105 170 -105q127 0 170 105h161q-71 -251 -331 -251q-258 0 -331 251z" />
    <glyph glyph-name="Edotaccent" unicode="&#x116;" horiz-adv-x="977" 
d="M129 1365h830v-234h-530v-317h412v-235h-412v-335h530v-244h-830v1365zM417 1601q0 52 37.5 88.5t89.5 36.5q53 0 90.5 -37t37.5 -88q0 -53 -38.5 -88.5t-88.5 -35.5q-51 0 -89.5 35.5t-38.5 88.5z" />
    <glyph glyph-name="edotaccent" unicode="&#x117;" horiz-adv-x="942" 
d="M881 458h-530v-56q0 -136 37 -182t97 -46q129 0 145 173l251 -16q-67 -352 -401 -352q-206 0 -313 139t-107 372q0 263 113.5 401.5t304.5 138.5q172 0 287.5 -122.5t115.5 -449.5zM615 621q1 18 1 28q0 195 -132 195q-130 0 -131 -223h262zM363 1269q0 52 37.5 88.5
t89.5 36.5q53 0 90.5 -37t37.5 -88q0 -53 -38.5 -88.5t-88.5 -35.5q-51 0 -89.5 35.5t-38.5 88.5z" />
    <glyph glyph-name="Eogonek" unicode="&#x118;" horiz-adv-x="977" 
d="M129 1365h830v-234h-530v-317h412v-235h-412v-335h530v-244q-93 -87 -93 -165q0 -111 136 -111q45 0 67 5l22 -97q-66 -17 -123 -17q-133 0 -198.5 53.5t-65.5 133.5q0 116 146 198h-721v1365z" />
    <glyph glyph-name="eogonek" unicode="&#x119;" horiz-adv-x="942" 
d="M821 -249l21 -94q-64 -16 -117 -16q-133 0 -195.5 51.5t-62.5 129.5q0 99 108 166q-48 -10 -75 -10q-235 0 -337.5 145.5t-102.5 366.5q0 263 113.5 401.5t304.5 138.5q189 0 296 -133t107 -439h-530v-56q0 -136 37 -182t97 -46q129 0 145 173l251 -16
q-22 -101 -52.5 -157t-102.5 -127q-101 -100 -101 -191q0 -109 128 -109q54 0 68 4zM615 621q1 18 1 28q0 195 -132 195q-130 0 -131 -223h262z" />
    <glyph glyph-name="Ecaron" unicode="&#x11a;" horiz-adv-x="977" 
d="M129 1365h830v-234h-530v-317h412v-235h-412v-335h530v-244h-830v1365zM143 1758h218l183 -119l183 119h218l-401 -313z" />
    <glyph glyph-name="ecaron" unicode="&#x11b;" horiz-adv-x="942" 
d="M881 458h-530v-56q0 -136 37 -182t97 -46q129 0 145 173l251 -16q-67 -352 -401 -352q-206 0 -313 139t-107 372q0 263 113.5 401.5t304.5 138.5q172 0 287.5 -122.5t115.5 -449.5zM615 621q1 18 1 28q0 195 -132 195q-130 0 -131 -223h262zM90 1426h218l183 -119
l183 119h218l-401 -313z" />
    <glyph glyph-name="Gcircumflex" unicode="&#x11c;" horiz-adv-x="1187" 
d="M608 728h474v-728h-127l-39 156q-110 -177 -330 -177q-233 0 -369.5 183.5t-136.5 493.5q0 337 134.5 533.5t397.5 196.5q419 0 470 -468l-270 -44q-28 268 -194 268q-101 0 -161.5 -99t-60.5 -375q0 -245 59 -345t173 -100q183 0 184 270h-204v235zM215 1488l401 313
l401 -313h-218l-183 118l-183 -118h-218z" />
    <glyph glyph-name="gcircumflex" unicode="&#x11d;" horiz-adv-x="942" 
d="M963 1176v-184q-32 8 -61 8q-88 0 -107 -91q75 -79 75 -202q0 -137 -102 -219.5t-264 -82.5q-62 0 -131 17q-66 -36 -66 -83q0 -38 37 -50t202 -21q152 -9 227.5 -30t126 -86t50.5 -171q0 -338 -493 -338q-414 0 -414 241q0 133 165 188q-132 62 -132 175q0 130 174 222
q-150 74 -150 252q0 151 103.5 230t276.5 79q115 0 216 -44q11 108 54 154t135 46q44 0 78 -10zM579 716q0 163 -89 163q-54 0 -76.5 -39.5t-22.5 -130.5q0 -153 97 -153q49 0 70 36t21 124zM364 44q-89 -41 -89 -122q0 -102 232 -102q199 0 199 106q0 39 -21.5 63.5t-55 31
t-140.5 11.5q-63 4 -125 12zM40 1232l401 313l401 -313h-218l-183 118l-183 -118h-218z" />
    <glyph glyph-name="Gdotaccent" unicode="&#x120;" horiz-adv-x="1187" 
d="M608 728h474v-728h-127l-39 156q-110 -177 -330 -177q-233 0 -369.5 183.5t-136.5 493.5q0 337 134.5 533.5t397.5 196.5q419 0 470 -468l-270 -44q-28 268 -194 268q-101 0 -161.5 -99t-60.5 -375q0 -245 59 -345t173 -100q183 0 184 270h-204v235zM488 1601
q0 52 37.5 88.5t89.5 36.5q53 0 90.5 -37t37.5 -88q0 -53 -38.5 -88.5t-88.5 -35.5q-51 0 -89.5 35.5t-38.5 88.5z" />
    <glyph glyph-name="gdotaccent" unicode="&#x121;" horiz-adv-x="942" 
d="M963 1176v-184q-32 8 -61 8q-88 0 -107 -91q75 -79 75 -202q0 -137 -102 -219.5t-264 -82.5q-62 0 -131 17q-66 -36 -66 -83q0 -38 37 -50t202 -21q152 -9 227.5 -30t126 -86t50.5 -171q0 -338 -493 -338q-414 0 -414 241q0 133 165 188q-132 62 -132 175q0 130 174 222
q-150 74 -150 252q0 151 103.5 230t276.5 79q115 0 216 -44q11 108 54 154t135 46q44 0 78 -10zM579 716q0 163 -89 163q-54 0 -76.5 -39.5t-22.5 -130.5q0 -153 97 -153q49 0 70 36t21 124zM364 44q-89 -41 -89 -122q0 -102 232 -102q199 0 199 106q0 39 -21.5 63.5t-55 31
t-140.5 11.5q-63 4 -125 12zM362 1269q0 52 37.5 88.5t89.5 36.5q53 0 90.5 -37t37.5 -88q0 -53 -38.5 -88.5t-88.5 -35.5q-51 0 -89.5 35.5t-38.5 88.5z" />
    <glyph glyph-name="Gcommaaccent" unicode="&#x122;" horiz-adv-x="1187" 
d="M608 728h474v-728h-127l-39 156q-110 -177 -330 -177q-233 0 -369.5 183.5t-136.5 493.5q0 337 134.5 533.5t397.5 196.5q419 0 470 -468l-270 -44q-28 268 -194 268q-101 0 -161.5 -99t-60.5 -375q0 -245 59 -345t173 -100q183 0 184 270h-204v235zM515 -109h209
l-160 -381h-105z" />
    <glyph glyph-name="gcommaaccent" unicode="&#x123;" horiz-adv-x="942" 
d="M963 1176v-184q-32 8 -61 8q-88 0 -107 -91q75 -79 75 -202q0 -137 -102 -219.5t-264 -82.5q-62 0 -131 17q-66 -36 -66 -83q0 -38 37 -50t202 -21q152 -9 227.5 -30t126 -86t50.5 -171q0 -338 -493 -338q-414 0 -414 241q0 133 165 188q-132 62 -132 175q0 130 174 222
q-150 74 -150 252q0 151 103.5 230t276.5 79q115 0 216 -44q11 108 54 154t135 46q44 0 78 -10zM579 716q0 163 -89 163q-54 0 -76.5 -39.5t-22.5 -130.5q0 -153 97 -153q49 0 70 36t21 124zM364 44q-89 -41 -89 -122q0 -102 232 -102q199 0 199 106q0 39 -21.5 63.5t-55 31
t-140.5 11.5q-63 4 -125 12zM579 1135h-208l159 380h105z" />
    <glyph glyph-name="Hcircumflex" unicode="&#x124;" horiz-adv-x="1186" 
d="M129 1365h300v-551h328v551h300v-1365h-300v558h-328v-558h-300v1365zM192 1488l401 313l401 -313h-218l-183 118l-183 -118h-218z" />
    <glyph glyph-name="hcircumflex" unicode="&#x125;" horiz-adv-x="977" 
d="M104 1365h282v-462q76 128 248 128q103 0 162.5 -48t75.5 -121.5t16 -213.5v-648h-282v648q0 99 -18.5 131.5t-76.5 32.5q-57 0 -91 -31t-34 -141v-640h-282v1365zM-141 1484l401 313l401 -313h-218l-183 118l-183 -118h-218z" />
    <glyph glyph-name="Hbar" unicode="&#x126;" horiz-adv-x="1186" 
d="M429 1201h329v164h300v-164h135v-223h-135v-978h-300v558h-329v-558h-299v978h-138v223h138v164h299v-164zM429 978v-164h329v164h-329z" />
    <glyph glyph-name="hbar" unicode="&#x127;" horiz-adv-x="977" 
d="M385 1286h367v-164h-367v-219q77 128 249 128q102 0 161.5 -47.5t75.5 -121.5t16 -214v-648h-281v648q0 99 -18.5 131.5t-76.5 32.5t-92 -31.5t-34 -140.5v-640h-281v1122h-138v164h138v79h281v-79z" />
    <glyph glyph-name="Itilde" unicode="&#x128;" horiz-adv-x="558" 
d="M129 1365h300v-1365h-300v1365zM523 1710l89 -66q-102 -153 -229 -153q-48 0 -126 35q-88 39 -122 39q-39 0 -95 -63l-86 67q111 143 219 143q50 0 132 -35q90 -39 122 -39q45 0 96 72z" />
    <glyph glyph-name="itilde" unicode="&#x129;" horiz-adv-x="488" 
d="M103 1010h282v-1010h-282v1010zM480 1385l89 -66q-102 -153 -229 -153q-48 0 -126 35q-88 39 -122 39q-39 0 -95 -63l-86 67q111 143 219 143q50 0 132 -35q90 -39 122 -39q45 0 96 72z" />
    <glyph glyph-name="Imacron" unicode="&#x12a;" horiz-adv-x="558" 
d="M129 1365h300v-1365h-300v1365zM-1 1677h562v-147h-562v147z" />
    <glyph glyph-name="imacron" unicode="&#x12b;" horiz-adv-x="488" 
d="M103 1010h282v-1010h-282v1010zM-37 1343h562v-147h-562v147z" />
    <glyph glyph-name="Ibreve" unicode="&#x12c;" horiz-adv-x="558" 
d="M129 1365h300v-1365h-300v1365zM-51 1741h161q42 -105 170 -105q127 0 170 105h161q-71 -251 -331 -251q-258 0 -331 251z" />
    <glyph glyph-name="ibreve" unicode="&#x12d;" horiz-adv-x="488" 
d="M103 1010h282v-1010h-282v1010zM-91 1401h161q42 -105 170 -105q127 0 170 105h161q-71 -251 -331 -251q-258 0 -331 251z" />
    <glyph glyph-name="Iogonek" unicode="&#x12e;" horiz-adv-x="558" 
d="M429 0q-79 -64 -96.5 -94t-17.5 -70q0 -112 132 -112q17 0 44 5l22 -97q-68 -17 -120 -17q-100 0 -170 50.5t-70 136.5q0 123 159 198h-183v1365h300v-1365z" />
    <glyph glyph-name="iogonek" unicode="&#x12f;" horiz-adv-x="488" 
d="M387 1093h-286v279h286v-279zM385 0q-57 -45 -80.5 -79.5t-23.5 -79.5q0 -52 36.5 -81t74.5 -29q17 0 51 6l21 -94q-65 -16 -114 -16q-87 0 -157 47.5t-70 135.5q0 104 148 190h-168v1010h282v-1010z" />
    <glyph glyph-name="IJ" unicode="&#x132;" horiz-adv-x="1214" 
d="M129 1365h300v-1365h-300v1365zM792 1365h300v-906q0 -173 -25.5 -269.5t-105.5 -153.5t-237 -57q-68 0 -183 21v251q72 -14 121 -14q79 0 104.5 42.5t25.5 179.5v906z" />
    <glyph glyph-name="ij" unicode="&#x133;" horiz-adv-x="977" 
d="M387 1093h-286v279h286v-279zM103 1010h282v-1010h-282v1010zM885 1093h-286v279h286v-279zM601 1010h282v-977q0 -156 -17 -234t-81 -123.5t-163 -45.5q-63 0 -151 14v231q21 -3 37 -3q62 0 77.5 31t15.5 138v969z" />
    <glyph glyph-name="Jcircumflex" unicode="&#x134;" horiz-adv-x="663" 
d="M241 1365h300v-906q0 -173 -25.5 -269.5t-105.5 -153.5t-237 -57q-68 0 -183 21v251q72 -14 121 -14q79 0 104.5 42.5t25.5 179.5v906zM-10 1480l401 313l401 -313h-218l-183 118l-183 -118h-218z" />
    <glyph glyph-name="jcircumflex" unicode="&#x135;" horiz-adv-x="488" 
d="M-131 1138l401 313l401 -313h-218l-183 118l-183 -118h-218zM113 1010h281v-977q0 -157 -17 -235t-81 -123t-163 -45q-63 0 -150 14v231q21 -3 37 -3q62 0 77.5 30.5t15.5 138.5v969z" />
    <glyph glyph-name="Kcommaaccent" unicode="&#x136;" horiz-adv-x="1081" 
d="M129 1365h300v-569l332 569h303l-342 -502l371 -863h-310l-240 629l-114 -165v-464h-300v1365zM510 -109h209l-160 -381h-105z" />
    <glyph glyph-name="kcommaaccent" unicode="&#x137;" horiz-adv-x="942" 
d="M104 1365h282v-745l284 390h256l-255 -339l280 -671h-304l-158 469l-103 -142v-327h-282v1365zM410 -109h209l-160 -381h-105z" />
    <glyph glyph-name="kgreenlandic" unicode="&#x138;" horiz-adv-x="942" 
d="M104 1010h282v-390l284 390h256l-255 -339l280 -671h-304l-158 469l-103 -142v-327h-282v1010z" />
    <glyph glyph-name="Lacute" unicode="&#x139;" horiz-adv-x="872" 
d="M129 1365h300v-1109h440v-256h-740v1365zM129 1535l341 314l112 -167l-369 -231z" />
    <glyph glyph-name="lacute" unicode="&#x13a;" horiz-adv-x="488" 
d="M103 1365h282v-1365h-282v1365zM96 1535l341 314l112 -167l-369 -231z" />
    <glyph glyph-name="Lcommaaccent" unicode="&#x13b;" horiz-adv-x="872" 
d="M129 1365h300v-1109h440v-256h-740v1365zM405 -109h209l-160 -381h-105z" />
    <glyph glyph-name="lcommaaccent" unicode="&#x13c;" horiz-adv-x="488" 
d="M103 1365h282v-1365h-282v1365zM144 -109h209l-160 -381h-105z" />
    <glyph glyph-name="Lcaron" unicode="&#x13d;" horiz-adv-x="872" 
d="M129 1365h300v-1109h440v-256h-740v1365zM626 1365h209l-160 -400h-105z" />
    <glyph glyph-name="lcaron" unicode="&#x13e;" horiz-adv-x="702" 
d="M103 1365h282v-1365h-282v1365zM509 1365h209l-160 -400h-105z" />
    <glyph glyph-name="Ldot" unicode="&#x13f;" horiz-adv-x="872" 
d="M129 1365h300v-1109h440v-256h-740v1365zM562 851h306v-310l-306 1v309z" />
    <glyph glyph-name="ldot" unicode="&#x140;" horiz-adv-x="776" 
d="M103 1365h282v-1365h-282v1365zM488 844h287v-302l-287 1v301z" />
    <glyph glyph-name="Nacute" unicode="&#x143;" horiz-adv-x="1151" 
d="M118 1365h333l351 -848v848h232v-1365h-268l-416 988v-988h-232v1365zM413 1535l341 314l112 -167l-369 -231z" />
    <glyph glyph-name="nacute" unicode="&#x144;" horiz-adv-x="977" 
d="M104 1010h267v-138q70 158 253 158q99 0 163.5 -44.5t82.5 -113.5t18 -210v-662h-282v662q0 102 -26 126t-70 24q-76 0 -100 -46.5t-24 -173.5v-592h-282v1010zM345 1203l341 314l112 -167l-369 -231z" />
    <glyph glyph-name="Ncommaaccent" unicode="&#x145;" horiz-adv-x="1151" 
d="M118 1365h333l351 -848v848h232v-1365h-268l-416 988v-988h-232v1365zM482 -109h209l-160 -381h-105z" />
    <glyph glyph-name="ncommaaccent" unicode="&#x146;" horiz-adv-x="977" 
d="M104 1010h267v-138q70 158 253 158q99 0 163.5 -44.5t82.5 -113.5t18 -210v-662h-282v662q0 102 -26 126t-70 24q-76 0 -100 -46.5t-24 -173.5v-592h-282v1010zM399 -109h209l-160 -381h-105z" />
    <glyph glyph-name="Ncaron" unicode="&#x147;" horiz-adv-x="1151" 
d="M118 1365h333l351 -848v848h232v-1365h-268l-416 988v-988h-232v1365zM175 1758h218l183 -119l183 119h218l-401 -313z" />
    <glyph glyph-name="ncaron" unicode="&#x148;" horiz-adv-x="977" 
d="M104 1010h267v-138q70 158 253 158q99 0 163.5 -44.5t82.5 -113.5t18 -210v-662h-282v662q0 102 -26 126t-70 24q-76 0 -100 -46.5t-24 -173.5v-592h-282v1010zM81 1426h218l183 -119l183 119h218l-401 -313z" />
    <glyph glyph-name="napostrophe" unicode="&#x149;" horiz-adv-x="1110" 
d="M194 1010h267v-138q70 158 253 158q99 0 163.5 -44.5t82.5 -113.5t18 -210v-662h-282v662q0 102 -26 126t-70 24q-76 0 -100 -46.5t-24 -173.5v-592h-282v1010zM-57 1403h256v-302l-146 -268h-110l113 268h-113v302z" />
    <glyph glyph-name="Eng" unicode="&#x14a;" horiz-adv-x="1197" 
d="M97 0v1365h292v-138q124 158 315 158q184 0 292 -115t108 -399v-739q0 -174 -41.5 -275.5t-146.5 -168.5t-265 -67q-79 0 -169 25v244q93 -19 136 -19q112 0 149 39t37 170v825q0 224 -154 224q-106 0 -179.5 -95t-73.5 -272v-762h-300z" />
    <glyph glyph-name="eng" unicode="&#x14b;" horiz-adv-x="942" 
d="M428 -325v235q73 -18 118 -18q41 0 51 27t10 81l-1 662q0 102 -26 126t-70 24q-76 0 -100 -46.5t-24 -173.5v-592h-282v1010h267v-138q70 158 253 158q99 0 163.5 -44.5t82.5 -113.5t18 -210v-662q0 -345 -298 -345q-62 0 -162 20z" />
    <glyph glyph-name="Omacron" unicode="&#x14c;" horiz-adv-x="1151" 
d="M1071 683q0 -704 -495 -704q-246 0 -371 179.5t-125 524.5q0 703 495 703q242 0 369 -176t127 -527zM755 683q0 276 -43 367.5t-137 91.5q-93 0 -136 -92t-43 -367q0 -270 42.5 -365t136.5 -95q93 0 136.5 91t43.5 369zM302 1675h562v-147h-562v147z" />
    <glyph glyph-name="omacron" unicode="&#x14d;" horiz-adv-x="942" 
d="M882 505q0 -526 -410 -526q-411 0 -411 526q0 525 411 525q410 0 410 -525zM591 505q0 193 -26.5 261t-92.5 68q-64 0 -92 -64.5t-28 -264.5q0 -185 24 -257t96 -72q69 0 94 71.5t25 257.5zM194 1343h562v-147h-562v147z" />
    <glyph glyph-name="Obreve" unicode="&#x14e;" horiz-adv-x="1151" 
d="M1071 683q0 -704 -495 -704q-246 0 -371 179.5t-125 524.5q0 703 495 703q242 0 369 -176t127 -527zM755 683q0 276 -43 367.5t-137 91.5q-93 0 -136 -92t-43 -367q0 -270 42.5 -365t136.5 -95q93 0 136.5 91t43.5 369zM245 1745h161q42 -105 170 -105q127 0 170 105h161
q-71 -251 -331 -251q-258 0 -331 251z" />
    <glyph glyph-name="obreve" unicode="&#x14f;" horiz-adv-x="942" 
d="M882 505q0 -526 -410 -526q-411 0 -411 526q0 525 411 525q410 0 410 -525zM591 505q0 193 -26.5 261t-92.5 68q-64 0 -92 -64.5t-28 -264.5q0 -185 24 -257t96 -72q69 0 94 71.5t25 257.5zM137 1383h161q42 -105 170 -105q127 0 170 105h161q-71 -251 -331 -251
q-258 0 -331 251z" />
    <glyph glyph-name="Ohungarumlaut" unicode="&#x150;" horiz-adv-x="1151" 
d="M1071 683q0 -704 -495 -704q-246 0 -371 179.5t-125 524.5q0 703 495 703q242 0 369 -176t127 -527zM755 683q0 276 -43 367.5t-137 91.5q-93 0 -136 -92t-43 -367q0 -270 42.5 -365t136.5 -95q93 0 136.5 91t43.5 369zM572 1813l114 -124l-286 -227l-76 76zM885 1813
l114 -124l-286 -227l-76 75z" />
    <glyph glyph-name="ohungarumlaut" unicode="&#x151;" horiz-adv-x="942" 
d="M882 505q0 -526 -410 -526q-411 0 -411 526q0 525 411 525q410 0 410 -525zM591 505q0 193 -26.5 261t-92.5 68q-64 0 -92 -64.5t-28 -264.5q0 -185 24 -257t96 -72q69 0 94 71.5t25 257.5zM461 1469l114 -124l-286 -227l-76 76zM774 1469l114 -124l-286 -227l-76 75z
" />
    <glyph glyph-name="Racute" unicode="&#x154;" horiz-adv-x="1116" 
d="M129 1365h429q125 0 191.5 -11.5t134.5 -62t106.5 -138t38.5 -196.5q0 -256 -192 -360l251 -597h-327l-182 540h-150v-540h-300v1365zM429 1144v-383h132q176 0 176 197q0 68 -26 111.5t-60.5 59t-101.5 15.5h-120zM367 1547l341 314l112 -167l-369 -231z" />
    <glyph glyph-name="racute" unicode="&#x155;" horiz-adv-x="628" 
d="M104 1010h248v-244q67 257 239 257q21 0 48 -5v-275q-31 4 -47 4q-206 0 -206 -312v-435h-282v1010zM241 1203l341 314l112 -167l-369 -231z" />
    <glyph glyph-name="Rcommaaccent" unicode="&#x156;" horiz-adv-x="1116" 
d="M129 1365h429q125 0 191.5 -11.5t134.5 -62t106.5 -138t38.5 -196.5q0 -256 -192 -360l251 -597h-327l-182 540h-150v-540h-300v1365zM429 1144v-383h132q176 0 176 197q0 68 -26 111.5t-60.5 59t-101.5 15.5h-120zM488 -109h209l-160 -381h-105z" />
    <glyph glyph-name="rcommaaccent" unicode="&#x157;" horiz-adv-x="628" 
d="M104 1010h248v-244q67 257 239 257q21 0 48 -5v-275q-31 4 -47 4q-206 0 -206 -312v-435h-282v1010zM141 -109h209l-160 -381h-105z" />
    <glyph glyph-name="Rcaron" unicode="&#x158;" horiz-adv-x="1116" 
d="M129 1365h429q125 0 191.5 -11.5t134.5 -62t106.5 -138t38.5 -196.5q0 -256 -192 -360l251 -597h-327l-182 540h-150v-540h-300v1365zM429 1144v-383h132q176 0 176 197q0 68 -26 111.5t-60.5 59t-101.5 15.5h-120zM153 1758h218l183 -119l183 119h218l-401 -313z" />
    <glyph glyph-name="rcaron" unicode="&#x159;" horiz-adv-x="628" 
d="M104 1010h248v-244q67 257 239 257q21 0 48 -5v-275q-31 4 -47 4q-206 0 -206 -312v-435h-282v1010zM-29 1426h218l183 -119l183 119h218l-401 -313z" />
    <glyph glyph-name="Sacute" unicode="&#x15a;" 
d="M964 1068l-248 -95q-53 169 -194 169q-66 0 -104.5 -37.5t-38.5 -87.5q0 -58 45.5 -92.5t190.5 -90.5q132 -49 207.5 -97t122 -130.5t46.5 -191.5q0 -191 -131.5 -313.5t-352.5 -122.5q-371 0 -474 375l262 75q48 -206 219 -206q78 0 126.5 40.5t48.5 106.5
q0 50 -34 89.5t-156 83.5q-157 56 -234 101.5t-127 130t-50 192.5q0 184 118.5 301.5t313.5 117.5q356 0 444 -318zM349 1539l341 314l112 -167l-369 -231z" />
    <glyph glyph-name="sacute" unicode="&#x15b;" horiz-adv-x="837" 
d="M770 767l-201 -60q-40 137 -148 137q-88 0 -88 -88q0 -50 33 -76t136 -62q116 -41 170 -72t91 -93.5t37 -143.5q0 -140 -101 -235t-282 -95q-341 0 -378 301l224 36q28 -151 159 -151q112 0 112 94q0 50 -33 76t-128 56q-174 56 -239 135t-65 183q0 146 102.5 234
t256.5 88q269 0 342 -264zM281 1203l341 314l112 -167l-369 -231z" />
    <glyph glyph-name="Scircumflex" unicode="&#x15c;" 
d="M964 1068l-248 -95q-53 169 -194 169q-66 0 -104.5 -37.5t-38.5 -87.5q0 -58 45.5 -92.5t190.5 -90.5q132 -49 207.5 -97t122 -130.5t46.5 -191.5q0 -191 -131.5 -313.5t-352.5 -122.5q-371 0 -474 375l262 75q48 -206 219 -206q78 0 126.5 40.5t48.5 106.5
q0 50 -34 89.5t-156 83.5q-157 56 -234 101.5t-127 130t-50 192.5q0 184 118.5 301.5t313.5 117.5q356 0 444 -318zM139 1488l401 313l401 -313h-218l-183 118l-183 -118h-218z" />
    <glyph glyph-name="scircumflex" unicode="&#x15d;" horiz-adv-x="837" 
d="M770 767l-201 -60q-40 137 -148 137q-88 0 -88 -88q0 -50 33 -76t136 -62q116 -41 170 -72t91 -93.5t37 -143.5q0 -140 -101 -235t-282 -95q-341 0 -378 301l224 36q28 -151 159 -151q112 0 112 94q0 50 -33 76t-128 56q-174 56 -239 135t-65 183q0 146 102.5 234
t256.5 88q269 0 342 -264zM29 1132l401 313l401 -313h-218l-183 118l-183 -118h-218z" />
    <glyph glyph-name="Tcommaaccent" unicode="&#x162;" horiz-adv-x="802" 
d="M-24 1365h851v-256h-279v-1109h-300v1109h-272v256zM301 -109h209l-160 -381h-105z" />
    <glyph glyph-name="tcommaaccent" unicode="&#x163;" horiz-adv-x="628" 
d="M146 1320l274 9v-319h186v-222h-186v-371q0 -103 4.5 -133.5t30 -51t85.5 -20.5q32 0 80 2v-214q-94 -21 -172 -21q-128 0 -196 49t-87 123t-19 235v402h-112v222h112v310zM278 -109h209l-160 -381h-105z" />
    <glyph glyph-name="Tcaron" unicode="&#x164;" horiz-adv-x="802" 
d="M-24 1365h851v-256h-279v-1109h-300v1109h-272v256zM1 1762h218l183 -119l183 119h218l-401 -313z" />
    <glyph glyph-name="tcaron" unicode="&#x165;" horiz-adv-x="753" 
d="M146 1320l274 9v-319h186v-222h-186v-371q0 -103 4.5 -133.5t30 -51t85.5 -20.5q32 0 80 2v-214q-94 -21 -172 -21q-128 0 -196 49t-87 123t-19 235v402h-112v222h112v310zM571 1520h209l-160 -400h-105z" />
    <glyph glyph-name="Tbar" unicode="&#x166;" horiz-adv-x="802" 
d="M548 914h344v-258h-344v-656h-300v656h-323v258h323v195h-272v256h851v-256h-279v-195z" />
    <glyph glyph-name="tbar" unicode="&#x167;" horiz-adv-x="628" 
d="M420 704h142v-198h-142v-89q0 -103 4.5 -133.5t30 -51t85.5 -20.5q32 0 80 2v-214q-94 -21 -172 -21q-128 0 -196 49t-87 123t-19 235v120h-111v198h111v84h-112v222h126l23 298l237 21v-319h186v-222h-186v-84z" />
    <glyph glyph-name="Utilde" unicode="&#x168;" horiz-adv-x="1186" 
d="M129 1365h300v-780q0 -165 15 -230t62.5 -98.5t116.5 -33.5q75 0 119 37t54 98t10 227v780h251v-768q0 -230 -26.5 -343t-135 -194t-298.5 -81q-178 0 -280 59.5t-145 167t-43 379.5v780zM838 1706l89 -66q-102 -153 -229 -153q-48 0 -126 35q-88 39 -122 39
q-39 0 -95 -63l-86 67q111 143 219 143q50 0 132 -35q90 -39 122 -39q45 0 96 72z" />
    <glyph glyph-name="utilde" unicode="&#x169;" horiz-adv-x="977" 
d="M90 1010h282v-648q0 -98 18 -131t78 -33q55 0 83.5 27t34.5 74.5t6 195.5v515h282v-1010h-265v138q-60 -103 -119.5 -131t-140.5 -28q-109 0 -167 45t-75 114t-17 215v657zM729 1385l89 -66q-102 -153 -229 -153q-48 0 -126 35q-88 39 -122 39q-39 0 -95 -63l-86 67
q111 143 219 143q50 0 132 -35q90 -39 122 -39q45 0 96 72z" />
    <glyph glyph-name="Umacron" unicode="&#x16a;" horiz-adv-x="1186" 
d="M129 1365h300v-780q0 -165 15 -230t62.5 -98.5t116.5 -33.5q75 0 119 37t54 98t10 227v780h251v-768q0 -230 -26.5 -343t-135 -194t-298.5 -81q-178 0 -280 59.5t-145 167t-43 379.5v780zM319 1677h562v-147h-562v147z" />
    <glyph glyph-name="umacron" unicode="&#x16b;" horiz-adv-x="977" 
d="M90 1010h282v-648q0 -98 18 -131t78 -33q55 0 83.5 27t34.5 74.5t6 195.5v515h282v-1010h-265v138q-60 -103 -119.5 -131t-140.5 -28q-109 0 -167 45t-75 114t-17 215v657zM201 1343h562v-147h-562v147z" />
    <glyph glyph-name="Ubreve" unicode="&#x16c;" horiz-adv-x="1186" 
d="M129 1365h300v-780q0 -165 15 -230t62.5 -98.5t116.5 -33.5q75 0 119 37t54 98t10 227v780h251v-768q0 -230 -26.5 -343t-135 -194t-298.5 -81q-178 0 -280 59.5t-145 167t-43 379.5v780zM263 1738h161q42 -105 170 -105q127 0 170 105h161q-71 -251 -331 -251
q-258 0 -331 251z" />
    <glyph glyph-name="ubreve" unicode="&#x16d;" horiz-adv-x="977" 
d="M90 1010h282v-648q0 -98 18 -131t78 -33q55 0 83.5 27t34.5 74.5t6 195.5v515h282v-1010h-265v138q-60 -103 -119.5 -131t-140.5 -28q-109 0 -167 45t-75 114t-17 215v657zM151 1401h161q42 -105 170 -105q127 0 170 105h161q-71 -251 -331 -251q-258 0 -331 251z" />
    <glyph glyph-name="Uring" unicode="&#x16e;" horiz-adv-x="1186" 
d="M129 1365h300v-780q0 -165 15 -230t62.5 -98.5t116.5 -33.5q75 0 119 37t54 98t10 227v780h251v-768q0 -230 -26.5 -343t-135 -194t-298.5 -81q-178 0 -280 59.5t-145 167t-43 379.5v780zM408 1644q0 83 58 139t135 56t135 -55.5t58 -139.5q0 -86 -60.5 -139t-132.5 -53
t-132.5 53.5t-60.5 138.5zM524 1645q0 -36 24.5 -58.5t52.5 -22.5q29 0 53 22.5t24 58.5q0 35 -23.5 58.5t-53.5 23.5t-53.5 -23.5t-23.5 -58.5z" />
    <glyph glyph-name="uring" unicode="&#x16f;" horiz-adv-x="977" 
d="M90 1010h282v-648q0 -98 18 -131t78 -33q55 0 83.5 27t34.5 74.5t6 195.5v515h282v-1010h-265v138q-60 -103 -119.5 -131t-140.5 -28q-109 0 -167 45t-75 114t-17 215v657zM289 1301q0 83 58 139t135 56t135 -55.5t58 -139.5q0 -86 -60.5 -139t-132.5 -53t-132.5 53.5
t-60.5 138.5zM405 1302q0 -36 24.5 -58.5t52.5 -22.5q29 0 53 22.5t24 58.5q0 35 -23.5 58.5t-53.5 23.5t-53.5 -23.5t-23.5 -58.5z" />
    <glyph glyph-name="Uhungarumlaut" unicode="&#x170;" horiz-adv-x="1186" 
d="M129 1365h300v-780q0 -165 15 -230t62.5 -98.5t116.5 -33.5q75 0 119 37t54 98t10 227v780h251v-768q0 -230 -26.5 -343t-135 -194t-298.5 -81q-178 0 -280 59.5t-145 167t-43 379.5v780zM580 1810l114 -124l-286 -227l-76 76zM893 1810l114 -124l-286 -227l-76 75z" />
    <glyph glyph-name="uhungarumlaut" unicode="&#x171;" horiz-adv-x="977" 
d="M90 1010h282v-648q0 -98 18 -131t78 -33q55 0 83.5 27t34.5 74.5t6 195.5v515h282v-1010h-265v138q-60 -103 -119.5 -131t-140.5 -28q-109 0 -167 45t-75 114t-17 215v657zM495 1469l114 -124l-286 -227l-76 76zM808 1469l114 -124l-286 -227l-76 75z" />
    <glyph glyph-name="Uogonek" unicode="&#x172;" horiz-adv-x="1186" 
d="M970 -257l21 -97q-66 -17 -121 -17q-135 0 -200.5 53t-65.5 134q0 101 109 171q-74 -9 -121 -9q-159 0 -270 58.5t-152 175t-41 373.5v780h300v-780q0 -165 15 -230t62.5 -98.5t116.5 -33.5q75 0 119 37t54 98t10 227v780h251v-768q0 -232 -23 -340t-147 -208
q-120 -98 -120 -197q0 -114 134 -114q48 0 69 5z" />
    <glyph glyph-name="uogonek" unicode="&#x173;" horiz-adv-x="977" 
d="M874 0q-91 -85 -91 -160q0 -107 131 -107q46 0 66 4l21 -94q-64 -16 -117 -16q-133 0 -195.5 52t-62.5 129q0 111 141 192h-158v138q-60 -103 -119.5 -131t-140.5 -28q-109 0 -167 45t-75 114t-17 215v657h282v-648q0 -98 18 -131t78 -33q55 0 83.5 27t34.5 74.5t6 195.5
v515h282v-1010z" />
    <glyph glyph-name="Wcircumflex" unicode="&#x174;" horiz-adv-x="1465" 
d="M-11 1365h307l143 -945l179 945h275l168 -947l167 947h253l-293 -1372h-269l-182 949l-186 -949h-266zM354 1488l401 313l401 -313h-218l-183 118l-183 -118h-218z" />
    <glyph glyph-name="wcircumflex" unicode="&#x175;" horiz-adv-x="1186" 
d="M-17 1010h274l119 -614l113 614h274l92 -614l136 614h221l-253 -1010h-236l-130 687l-127 -687h-229zM200 1132l401 313l401 -313h-218l-183 118l-183 -118h-218z" />
    <glyph glyph-name="Ycircumflex" unicode="&#x176;" horiz-adv-x="907" 
d="M-58 1365h330l193 -498l206 498h293l-379 -788v-577h-300v577zM52 1488l401 313l401 -313h-218l-183 118l-183 -118h-218z" />
    <glyph glyph-name="ycircumflex" unicode="&#x177;" horiz-adv-x="733" 
d="M-28 1010h282l136 -617l131 617h243l-304 -1026q-44 -147 -75 -206t-93 -97.5t-158 -38.5q-59 0 -120 16v222q42 -6 79 -6q82 0 112.5 27t57.5 118zM-26 1132l401 313l401 -313h-218l-183 118l-183 -118h-218z" />
    <glyph glyph-name="Zacute" unicode="&#x179;" horiz-adv-x="942" 
d="M44 1365h877v-213l-571 -908h589v-244h-937v209l575 912h-533v244zM305 1559l341 314l112 -167l-369 -231z" />
    <glyph glyph-name="zacute" unicode="&#x17a;" horiz-adv-x="733" 
d="M76 1010h630v-181l-375 -629h385v-200h-675v200l366 610h-331v200zM261 1203l341 314l112 -167l-369 -231z" />
    <glyph glyph-name="Zdotaccent" unicode="&#x17b;" horiz-adv-x="942" 
d="M44 1365h877v-213l-571 -908h589v-244h-937v209l575 912h-533v244zM366 1601q0 52 37.5 88.5t89.5 36.5q53 0 90.5 -37t37.5 -88q0 -53 -38.5 -88.5t-88.5 -35.5q-51 0 -89.5 35.5t-38.5 88.5z" />
    <glyph glyph-name="zdotaccent" unicode="&#x17c;" horiz-adv-x="733" 
d="M76 1010h630v-181l-375 -629h385v-200h-675v200l366 610h-331v200zM275 1269q0 52 37.5 88.5t89.5 36.5q53 0 90.5 -37t37.5 -88q0 -53 -38.5 -88.5t-88.5 -35.5q-51 0 -89.5 35.5t-38.5 88.5z" />
    <glyph glyph-name="longs" unicode="&#x17f;" horiz-adv-x="488" 
d="M562 1409v-220l-85 2q-64 0 -84 -31t-20 -150v-1010h-270v1010q0 178 31 249t103 113.5t200 42.5q33 0 125 -6z" />
    <glyph glyph-name="Aringacute" unicode="&#x1fa;" 
d="M675 1356l387 -1356h-307l-68 282h-384l-67 -282h-276l408 1361q-43 53 -43 125q0 84 59 141.5t140 57.5q80 0 139 -57.5t59 -141.5q0 -76 -47 -130zM284 1830l422 222l67 -195l-428 -133zM445 1485q0 -39 26 -61t53 -22q29 0 54 23t25 60q0 39 -25 62t-54 23
q-31 0 -55 -24t-24 -61zM630 516l-137 557l-133 -557h270z" />
    <glyph glyph-name="aringacute" unicode="&#x1fb;" horiz-adv-x="977" 
d="M374 689l-267 26q19 152 129.5 234t278.5 82q142 0 228 -54.5t108.5 -126.5t22.5 -223v-403q0 -188 17 -224h-261q-14 41 -14 155q-93 -176 -277 -176q-118 0 -192 70.5t-74 205.5q0 169 112 261.5t408 110.5v38q0 101 -20.5 140t-79.5 39q-108 0 -119 -155zM593 483
q-123 -14 -175.5 -54.5t-52.5 -136.5q0 -128 94 -128q51 0 92.5 57.5t41.5 211.5v50zM320 1301q0 83 58 139t135 56t135 -55.5t58 -139.5q0 -86 -60.5 -139t-132.5 -53t-132.5 53.5t-60.5 138.5zM436 1302q0 -36 24.5 -58.5t52.5 -22.5q29 0 53 22.5t24 58.5
q0 35 -23.5 58.5t-53.5 23.5t-53.5 -23.5t-23.5 -58.5zM291 1571l341 314l112 -167l-369 -231z" />
    <glyph glyph-name="AEacute" unicode="&#x1fc;" horiz-adv-x="1396" 
d="M454 1365h924v-234h-505v-317h398v-235h-398v-335h505v-244h-793v316h-298l-110 -316h-259zM592 537v628l-229 -628h229zM717 1554l341 314l112 -167l-369 -231z" />
    <glyph glyph-name="aeacute" unicode="&#x1fd;" horiz-adv-x="1430" 
d="M1370 458h-523q-1 -30 -1 -46q0 -238 134 -238q121 0 139 169l242 -17q-60 -347 -380 -347q-210 0 -290 172q-107 -172 -325 -172q-139 0 -216 78t-77 206q0 86 39.5 167t133.5 129t327 69q2 47 2 66q0 97 -32.5 123.5t-74.5 26.5q-114 0 -125 -163l-245 28
q51 322 385 322q176 0 242 -104q97 103 250 103q144 0 232 -71.5t125.5 -185t37.5 -315.5zM1106 621q-3 223 -129 223q-121 0 -131 -223h260zM573 483q-141 -18 -180 -65t-39 -121q0 -132 94 -132q126 0 126 239q0 27 -1 79zM545 1203l341 314l112 -167l-369 -231z" />
    <glyph glyph-name="Oslashacute" unicode="&#x1fe;" horiz-adv-x="1151" 
d="M883 1444h157l-110 -217q141 -173 141 -544q0 -704 -496 -704q-124 0 -238 55l-62 -118h-157l107 215q-145 181 -145 552q0 703 495 703q141 0 246 -61zM698 1107q-50 52 -123 52q-99 0 -153 -89.5t-54 -386.5q0 -157 15 -248zM457 244q48 -40 127 -40q108 0 153.5 111.5
t45.5 411.5q0 96 -14 193zM344 1554l341 314l112 -167l-369 -231z" />
    <glyph glyph-name="oslashacute" unicode="&#x1ff;" horiz-adv-x="942" 
d="M722 1115h134l-97 -193q123 -135 123 -417q0 -526 -410 -526q-100 0 -180 31l-64 -127h-133l98 195q-132 137 -132 427q0 525 411 525q107 0 190 -35zM564 825q-45 23 -89 23q-96 0 -129.5 -75.5t-33.5 -267.5q0 -98 10 -201zM391 176q35 -14 81 -14q98 0 128.5 81.5
t30.5 261.5q0 77 -7 176zM281 1206l341 314l112 -167l-369 -231z" />
    <glyph glyph-name="tonos" unicode="&#x384;" horiz-adv-x="1045" 
d="M-221 1089l261 399l177 -118l-322 -354z" />
    <glyph glyph-name="dieresistonos" unicode="&#x385;" horiz-adv-x="1017" 
d="M407 1499l282 253l97 -136l-319 -201zM563 1276q0 45 33.5 76.5t80.5 31.5q46 0 80 -31.5t34 -77.5q0 -47 -36.5 -76.5t-77.5 -29.5q-40 0 -77 28.5t-37 78.5zM225 1276q0 45 33.5 76.5t80.5 31.5q48 0 81 -31.5t33 -77.5q0 -47 -36 -76.5t-78 -29.5t-78 29.5t-36 77.5z
" />
    <glyph glyph-name="Alphatonos" unicode="&#x386;" horiz-adv-x="1054" 
d="M377 1365h302l390 -1365h-307l-68 282h-384l-67 -282h-276zM637 516l-137 557l-133 -557h270zM-164 1084l261 399l177 -118l-322 -354z" />
    <glyph glyph-name="anoteleia" unicode="&#x387;" horiz-adv-x="523" 
d="M122 677h279v-303l-279 1v302z" />
    <glyph glyph-name="Epsilontonos" unicode="&#x388;" horiz-adv-x="1020" 
d="M139 1365h830v-234h-530v-317h412v-235h-412v-335h530v-244h-830v1365zM-433 1089l261 399l177 -118l-322 -354z" />
    <glyph glyph-name="Etatonos" unicode="&#x389;" horiz-adv-x="1194" 
d="M137 1365h300v-551h328v551h300v-1365h-300v558h-328v-558h-300v1365zM-390 1084l261 399l177 -118l-322 -354z" />
    <glyph glyph-name="Iotatonos" unicode="&#x38a;" horiz-adv-x="565" 
d="M136 1365h300v-1365h-300v1365zM-391 1084l261 399l177 -118l-322 -354z" />
    <glyph glyph-name="Omicrontonos" unicode="&#x38c;" horiz-adv-x="1169" 
d="M1101 683q0 -704 -495 -704q-246 0 -371 179.5t-125 524.5q0 703 495 703q242 0 369 -176t127 -527zM785 683q0 276 -43 367.5t-137 91.5q-93 0 -136 -92t-43 -367q0 -270 42.5 -365t136.5 -95q93 0 136.5 91t43.5 369zM-241 1084l261 399l177 -118l-322 -354z" />
    <glyph glyph-name="Upsilontonos" unicode="&#x38e;" horiz-adv-x="936" 
d="M-28 1365h330l193 -498l206 498h293l-379 -788v-577h-300v577zM-541 1084l261 399l177 -118l-322 -354z" />
    <glyph glyph-name="Omegatonos" unicode="&#x38f;" horiz-adv-x="1199" 
d="M53 0v249h233q-214 166 -214 507q0 305 147.5 469t389.5 164q244 0 391 -165.5t147 -458.5q0 -350 -215 -516h233v-249h-527v241q82 38 111 111t37 200t8 185q0 407 -185 407q-188 0 -188 -395q0 -81 9 -205.5t37.5 -192.5t112.5 -110v-241h-527zM-246 1084l261 399
l177 -118l-322 -354z" />
    <glyph glyph-name="iotadieresistonos" unicode="&#x390;" horiz-adv-x="488" 
d="M103 1010h282v-1010h-282v1010zM147 1488l282 253l97 -136l-319 -201zM303 1265q0 45 33.5 76.5t80.5 31.5q46 0 80 -31.5t34 -77.5q0 -47 -36.5 -76.5t-77.5 -29.5q-40 0 -77 28.5t-37 78.5zM-35 1265q0 45 33.5 76.5t80.5 31.5q48 0 81 -31.5t33 -77.5q0 -47 -36 -76.5
t-78 -29.5t-78 29.5t-36 77.5z" />
    <glyph glyph-name="Alpha" unicode="&#x391;" 
d="M370 1365h302l390 -1365h-307l-68 282h-384l-67 -282h-276zM630 516l-137 557l-133 -557h270z" />
    <glyph glyph-name="Beta" unicode="&#x392;" horiz-adv-x="1140" 
d="M129 1365h466q164 0 247.5 -26t140 -114t56.5 -219q0 -229 -195 -294q232 -82 232 -335q0 -133 -63 -224.5t-155.5 -122t-262.5 -30.5h-466v1365zM417 814h97q145 0 182.5 52t37.5 119q0 62 -37.5 110.5t-160.5 48.5h-119v-330zM417 235h147q207 0 207 178
q0 99 -51.5 139.5t-155.5 40.5h-147v-358z" />
    <glyph glyph-name="Gamma" unicode="&#x393;" horiz-adv-x="959" 
d="M959 1365v-248h-530v-1117h-300v1365h830z" />
    <glyph glyph-name="Delta" unicode="&#x394;" horiz-adv-x="1040" 
d="M345 1365h337l390 -1365h-1102zM709 256l-206 817l-195 -817h401z" />
    <glyph glyph-name="Epsilon" unicode="&#x395;" horiz-adv-x="1011" 
d="M129 1365h830v-234h-530v-317h412v-235h-412v-335h530v-244h-830v1365z" />
    <glyph glyph-name="Zeta" unicode="&#x396;" horiz-adv-x="942" 
d="M44 1365h877v-213l-571 -908h589v-244h-937v209l575 912h-533v244z" />
    <glyph glyph-name="Eta" unicode="&#x397;" horiz-adv-x="1186" 
d="M129 1365h300v-551h328v551h300v-1365h-300v558h-328v-558h-300v1365z" />
    <glyph glyph-name="Theta" unicode="&#x398;" horiz-adv-x="1166" 
d="M1098 696q0 -717 -515 -717q-240 0 -377.5 169.5t-137.5 521.5q0 716 515 716q240 0 377.5 -169.5t137.5 -520.5zM770 683q0 277 -45 368t-142 91t-141.5 -91.5t-44.5 -367.5q0 -277 45 -368.5t141 -91.5t141.5 90.5t45.5 369.5zM719 811v-235h-272v235h272z" />
    <glyph glyph-name="Iota" unicode="&#x399;" horiz-adv-x="558" 
d="M129 1365h300v-1365h-300v1365z" />
    <glyph glyph-name="Kappa" unicode="&#x39a;" horiz-adv-x="1116" 
d="M129 1365h300v-569l332 569h303l-342 -502l371 -863h-310l-240 629l-114 -165v-464h-300v1365z" />
    <glyph glyph-name="Lambda" unicode="&#x39b;" horiz-adv-x="1049" 
d="M245 0h-277l375 1365h337l390 -1365h-298l-271 1073z" />
    <glyph glyph-name="Mu" unicode="&#x39c;" horiz-adv-x="1535" 
d="M129 1365h440l193 -843l217 843h427v-1365h-281v1143l-279 -1143h-218l-255 1143v-1143h-244v1365z" />
    <glyph glyph-name="Nu" unicode="&#x39d;" horiz-adv-x="1151" 
d="M118 1365h333l351 -848v848h232v-1365h-268l-416 988v-988h-232v1365z" />
    <glyph glyph-name="Xi" unicode="&#x39e;" horiz-adv-x="923" 
d="M858 1365v-251h-793v251h793zM734 822v-252h-544v252h544zM858 250v-251h-793v251h793z" />
    <glyph glyph-name="Omicron" unicode="&#x39f;" horiz-adv-x="1151" 
d="M1071 683q0 -704 -495 -704q-246 0 -371 179.5t-125 524.5q0 703 495 703q242 0 369 -176t127 -527zM755 683q0 276 -43 367.5t-137 91.5q-93 0 -136 -92t-43 -367q0 -270 42.5 -365t136.5 -95q93 0 136.5 91t43.5 369z" />
    <glyph glyph-name="Pi" unicode="&#x3a0;" horiz-adv-x="1186" 
d="M129 1365h928v-1365h-300v1109h-328v-1109h-300v1365z" />
    <glyph glyph-name="Rho" unicode="&#x3a1;" 
d="M129 1365h393q179 0 277.5 -30t165.5 -135.5t67 -261.5q0 -150 -54 -248t-149.5 -141.5t-293.5 -43.5h-106v-505h-300v1365zM429 1144v-404h93q123 0 158.5 57t35.5 148q0 77 -27.5 124.5t-64 61t-102.5 13.5h-93z" />
    <glyph glyph-name="Sigma" unicode="&#x3a3;" horiz-adv-x="915" 
d="M58 1365h796v-234h-496l271 -376l-298 -511h557v-244h-830v244l286 491l-286 396v234z" />
    <glyph glyph-name="Tau" unicode="&#x3a4;" horiz-adv-x="802" 
d="M-24 1365h851v-256h-279v-1109h-300v1109h-272v256z" />
    <glyph glyph-name="Upsilon" unicode="&#x3a5;" horiz-adv-x="907" 
d="M-58 1365h330l193 -498l206 498h293l-379 -788v-577h-300v577z" />
    <glyph glyph-name="Phi" unicode="&#x3a6;" horiz-adv-x="1332" 
d="M537 126q-253 41 -359.5 194t-106.5 364q0 223 117.5 371.5t348.5 186.5v164h258v-165q223 -31 344.5 -180t121.5 -377q0 -472 -466 -556v-168h-258v166zM537 1010q-176 -66 -176 -335q0 -250 176 -318v653zM795 357q176 66 176 336q0 249 -176 317v-653z" />
    <glyph glyph-name="Chi" unicode="&#x3a7;" horiz-adv-x="977" 
d="M10 1365h334l163 -355l172 355h287l-322 -617l364 -748h-329l-199 446l-224 -446h-287l375 700z" />
    <glyph glyph-name="Psi" unicode="&#x3a8;" horiz-adv-x="1454" 
d="M577 0v246q-142 19 -229.5 62t-142 119.5t-74.5 188.5t-20 335v414h300v-414q0 -267 29.5 -348t136.5 -110v872h300v-872q106 29 136 109.5t30 348.5v414h300v-414q0 -228 -20 -338t-78 -189t-143 -119t-225 -59v-246h-300z" />
    <glyph glyph-name="Omega" unicode="&#x3a9;" horiz-adv-x="1218" 
d="M53 0v249h233q-214 166 -214 507q0 305 147.5 469t389.5 164q244 0 391 -165.5t147 -458.5q0 -350 -215 -516h233v-249h-527v241q82 38 111 111t37 200t8 185q0 407 -185 407q-188 0 -188 -395q0 -81 9 -205.5t37.5 -192.5t112.5 -110v-241h-527z" />
    <glyph glyph-name="Iotadieresis" unicode="&#x3aa;" horiz-adv-x="558" 
d="M129 1365h300v-1365h-300v1365zM334 1601q0 45 33.5 76.5t80.5 31.5q48 0 81 -31.5t33 -76.5q0 -48 -36 -77.5t-78 -29.5q-43 0 -78.5 30t-35.5 77zM-4 1601q0 45 33.5 76.5t80.5 31.5t80.5 -31.5t33.5 -76.5q0 -47 -35.5 -77t-78.5 -30q-41 0 -77.5 29t-36.5 78z" />
    <glyph glyph-name="Upsilondieresis" unicode="&#x3ab;" horiz-adv-x="907" 
d="M-58 1365h330l193 -498l206 498h293l-379 -788v-577h-300v577zM509 1601q0 45 33.5 76.5t80.5 31.5q48 0 81 -31.5t33 -76.5q0 -48 -36 -77.5t-78 -29.5q-43 0 -78.5 30t-35.5 77zM171 1601q0 45 33.5 76.5t80.5 31.5t80.5 -31.5t33.5 -76.5q0 -47 -35.5 -77t-78.5 -30
q-41 0 -77.5 29t-36.5 78z" />
    <glyph glyph-name="alphatonos" unicode="&#x3ac;" horiz-adv-x="1114" 
d="M1098 0h-290l-74 234q-109 -255 -301 -255q-170 0 -274 156t-104 371q0 244 113 384.5t291 140.5q186 0 285 -210l53 189h278l-172 -478zM680 512q-50 198 -86 258.5t-89 60.5q-56 0 -96 -87t-40 -231q0 -159 42 -247t99 -88q52 0 89 69t81 265zM344 1203l341 314
l112 -167l-369 -231z" />
    <glyph glyph-name="epsilontonos" unicode="&#x3ad;" horiz-adv-x="869" 
d="M574 610v-191q-106 0 -140.5 -4t-59 -30.5t-24.5 -78.5q0 -68 32 -104t78 -36q102 0 147 155l241 -43q-73 -193 -169.5 -247t-231.5 -54q-198 0 -292.5 90.5t-94.5 227.5q0 160 161 234q-136 75 -136 215q0 119 92.5 202.5t271.5 83.5q328 0 377 -280l-251 -48
q-23 142 -107 142q-93 0 -93 -123q0 -52 20 -76.5t49.5 -29.5t129.5 -5zM315 1203l341 314l112 -167l-369 -231z" />
    <glyph glyph-name="etatonos" unicode="&#x3ae;" horiz-adv-x="986" 
d="M104 1010h282v-138q67 158 246 158q89 0 148.5 -38t83.5 -100t24 -230v-1006h-282v1006q0 134 -16.5 162t-71.5 28q-39 0 -77.5 -38t-46.5 -90t-8 -132v-592h-282v1010zM373 1203l341 314l112 -167l-369 -231z" />
    <glyph glyph-name="iotatonos" unicode="&#x3af;" horiz-adv-x="488" 
d="M103 1010h282v-1010h-282v1010zM85 1203l341 314l112 -167l-369 -231z" />
    <glyph glyph-name="upsilondieresistonos" unicode="&#x3b0;" horiz-adv-x="965" 
d="M97 1010h282v-584q0 -151 18.5 -191t84.5 -40q68 0 87 40t19 191v584h281v-584q0 -177 -33.5 -264t-123 -136t-223.5 -49q-140 0 -229 45t-126 131t-37 273v584zM392 1488l282 253l97 -136l-319 -201zM548 1265q0 45 33.5 76.5t80.5 31.5q46 0 80 -31.5t34 -77.5
q0 -47 -36.5 -76.5t-77.5 -29.5q-40 0 -77 28.5t-37 78.5zM210 1265q0 45 33.5 76.5t80.5 31.5q48 0 81 -31.5t33 -77.5q0 -47 -36 -76.5t-78 -29.5t-78 29.5t-36 77.5z" />
    <glyph glyph-name="alpha" unicode="&#x3b1;" horiz-adv-x="1114" 
d="M1098 0h-290l-74 234q-109 -255 -301 -255q-170 0 -274 156t-104 371q0 244 113 384.5t291 140.5q186 0 285 -210l53 189h278l-172 -478zM680 512q-50 198 -86 258.5t-89 60.5q-56 0 -96 -87t-40 -231q0 -159 42 -247t99 -88q52 0 89 69t81 265z" />
    <glyph glyph-name="beta" unicode="&#x3b2;" horiz-adv-x="1033" 
d="M110 -340v1221q0 182 34 286t123.5 162.5t250.5 58.5q193 0 290 -97t97 -237q0 -224 -218 -283q167 -42 229 -142t62 -214q0 -174 -106.5 -305t-272.5 -131q-143 0 -207 102v-421h-282zM392 274q0 -32 16 -53t48.5 -39.5t63.5 -18.5q74 0 117.5 77t43.5 210q0 72 -22 126
t-57 73.5t-100 19.5v169q95 2 124 51.5t29 125.5q0 103 -40 153t-103 50q-67 0 -93.5 -53t-26.5 -245v-646z" />
    <glyph glyph-name="gamma" unicode="&#x3b3;" horiz-adv-x="787" 
d="M247 -341v342l-271 1009h281l166 -650l165 650h237l-296 -1009v-342h-282z" />
    <glyph glyph-name="delta" unicode="&#x3b4;" horiz-adv-x="1012" 
d="M836 1365v-188h-339l117 -104l51 -42q286 -237 286 -554q0 -229 -118 -365.5t-326 -136.5q-205 0 -326 133.5t-121 369.5q0 189 111 315.5t263 143.5l-254 240v188h656zM527 761q-153 0 -153 -294q0 -292 150 -292q151 0 151 298q0 151 -36 219.5t-112 68.5z" />
    <glyph glyph-name="epsilon" unicode="&#x3b5;" horiz-adv-x="869" 
d="M574 610v-191q-106 0 -140.5 -4t-59 -30.5t-24.5 -78.5q0 -68 32 -104t78 -36q102 0 147 155l241 -43q-73 -193 -169.5 -247t-231.5 -54q-198 0 -292.5 90.5t-94.5 227.5q0 160 161 234q-136 75 -136 215q0 119 92.5 202.5t271.5 83.5q328 0 377 -280l-251 -48
q-23 142 -107 142q-93 0 -93 -123q0 -52 20 -76.5t49.5 -29.5t129.5 -5z" />
    <glyph glyph-name="zeta" unicode="&#x3b6;" horiz-adv-x="716" 
d="M94 1147v218h596v-177q-346 -344 -346 -750q0 -124 27.5 -158t126.5 -42q106 -8 158 -57t52 -182q0 -144 -80 -344l-251 27q68 166 68 252q0 36 -17 48.5t-63 13.5q-110 3 -171.5 46.5t-97.5 130t-36 219.5q0 400 356 755h-322z" />
    <glyph glyph-name="eta" unicode="&#x3b7;" horiz-adv-x="986" 
d="M104 1010h282v-138q67 158 246 158q89 0 148.5 -38t83.5 -100t24 -230v-1006h-282v1006q0 134 -16.5 162t-71.5 28q-39 0 -77.5 -38t-46.5 -90t-8 -132v-592h-282v1010z" />
    <glyph glyph-name="theta" unicode="&#x3b8;" horiz-adv-x="1012" 
d="M506 1386q219 0 331 -189.5t112 -514.5q0 -327 -114 -515t-329 -188q-216 0 -329.5 188t-113.5 515q0 321 110.5 512.5t332.5 191.5zM332 795h347q-12 392 -174 392q-160 0 -173 -392zM332 617q2 -438 175 -438q167 0 172 438h-347z" />
    <glyph glyph-name="iota" unicode="&#x3b9;" horiz-adv-x="488" 
d="M103 1010h282v-1010h-282v1010z" />
    <glyph glyph-name="kappa" unicode="&#x3ba;" horiz-adv-x="942" 
d="M104 1010h282v-390l284 390h256l-255 -339l280 -671h-304l-158 469l-103 -142v-327h-282v1010z" />
    <glyph glyph-name="lambda" unicode="&#x3bb;" horiz-adv-x="796" 
d="M-24 0l284 922l-123 443h282l405 -1365h-287l-149 579l-170 -579h-242z" />
    <glyph glyph-name="mu" unicode="&#x3bc;" horiz-adv-x="998" 
d="M103 -345v1355h282v-534q0 -136 4.5 -179.5t32 -72.5t73.5 -29q54 0 86 44t32 237v534h281v-1010h-273l1 137q-30 -161 -130 -161q-104 0 -124 157v-478h-265z" />
    <glyph glyph-name="nu" unicode="&#x3bd;" horiz-adv-x="733" 
d="M-22 1010h271l139 -597l141 597h234l-277 -1010h-223z" />
    <glyph glyph-name="xi" unicode="&#x3be;" horiz-adv-x="816" 
d="M530 -314q32 147 32 199t-31 68t-81 19q-156 8 -232 48t-119.5 127.5t-43.5 208.5q0 149 67 230.5t203 134.5q-133 51 -170 102.5t-37 109.5q0 147 200 215h-222v217h682v-217h-125q-77 0 -116.5 -11t-71.5 -53.5t-32 -102.5q0 -168 176 -168h99v-214h-99
q-94 0 -139 -14.5t-73 -60t-28 -114.5q0 -87 38 -122.5t130 -49.5q116 -17 164 -33.5t79 -67t31 -155.5q0 -126 -61 -332z" />
    <glyph glyph-name="omicron" unicode="&#x3bf;" horiz-adv-x="942" 
d="M882 505q0 -526 -410 -526q-411 0 -411 526q0 525 411 525q410 0 410 -525zM591 505q0 193 -26.5 261t-92.5 68q-64 0 -92 -64.5t-28 -264.5q0 -185 24 -257t96 -72q69 0 94 71.5t25 257.5z" />
    <glyph glyph-name="pi" unicode="&#x3c0;" horiz-adv-x="1109" 
d="M976 782v-782h-282v782h-279v-782h-282v782h-102v228h1047v-228h-102z" />
    <glyph glyph-name="rho" unicode="&#x3c1;" horiz-adv-x="976" 
d="M373 75v-417h-282v711q0 229 31.5 366.5t129 216t257.5 78.5q412 0 412 -525q0 -266 -99 -401.5t-259 -135.5q-164 0 -190 107zM631 505q0 193 -27 261t-93 68q-64 0 -92 -64.5t-28 -264.5q0 -212 30 -270.5t90 -58.5q70 0 95 71.5t25 257.5z" />
    <glyph glyph-name="sigma1" unicode="&#x3c2;" horiz-adv-x="884" 
d="M536 -299q53 123 53 203q0 40 -17 56.5t-70 20.5q-213 18 -330 152.5t-117 368.5q0 250 113 390.5t310 140.5q141 0 236 -75.5t141 -278.5l-259 -50q-23 188 -120 188q-54 0 -92.5 -65t-38.5 -211q0 -126 31.5 -189.5t81 -87.5t156.5 -43q122 -22 181 -73.5t59 -163.5
q0 -126 -65 -335z" />
    <glyph glyph-name="sigma" unicode="&#x3c3;" horiz-adv-x="992" 
d="M614 1011l358 -1v-200h-191q57 -62 76 -126t19 -187q0 -518 -410 -518q-411 0 -411 526q0 525 411 525q83 0 148 -19zM585 505q0 193 -26.5 261t-92.5 68q-64 0 -92 -64.5t-28 -264.5q0 -185 24 -257t96 -72q69 0 94 71.5t25 257.5z" />
    <glyph glyph-name="tau" unicode="&#x3c4;" horiz-adv-x="747" 
d="M-7 1010h762v-224h-244v-786h-281v786h-237v224z" />
    <glyph glyph-name="upsilon" unicode="&#x3c5;" horiz-adv-x="965" 
d="M97 1010h282v-584q0 -151 18.5 -191t84.5 -40q68 0 87 40t19 191v584h281v-584q0 -177 -33.5 -264t-123 -136t-223.5 -49q-140 0 -229 45t-126 131t-37 273v584z" />
    <glyph glyph-name="phi" unicode="&#x3c6;" horiz-adv-x="1273" 
d="M505 -341v317q-205 13 -325 155.5t-120 371.5q0 351 281 480l78 -234q-74 -90 -74 -250q0 -261 160 -319v843q66 8 128 8q199 0 318 -59.5t191 -186.5t72 -287q0 -200 -112.5 -351t-340.5 -171v-317h-256zM761 178q162 56 162 328q0 279 -162 331v-659z" />
    <glyph glyph-name="chi" unicode="&#x3c7;" horiz-adv-x="844" 
d="M281 369l-269 641h269l162 -383l193 383h239l-294 -671l295 -676h-269l-190 470l-225 -470h-238z" />
    <glyph glyph-name="psi" unicode="&#x3c8;" horiz-adv-x="1293" 
d="M505 -341v325q-138 9 -229 63.5t-134.5 143.5t-43.5 293v526h282v-526q0 -154 23 -211t102 -69v806h282v-806q81 12 103.5 70.5t22.5 209.5v526h281v-526q0 -180 -37.5 -278t-132 -154t-237.5 -68v-325h-282z" />
    <glyph glyph-name="omega" unicode="&#x3c9;" horiz-adv-x="1263" 
d="M760 756v-302q0 -126 11.5 -193t53.5 -67q94 0 94 267q0 281 -130 467l212 113q147 -195 177.5 -319.5t30.5 -256.5q0 -233 -95.5 -360.5t-269.5 -127.5q-146 0 -212 106q-66 -106 -212 -106q-179 0 -272 131t-93 350q0 201 56.5 337t152.5 248l213 -113
q-132 -187 -132 -469q0 -267 94 -267q42 0 53.5 63.5t11.5 196.5v302h256z" />
    <glyph glyph-name="iotadieresis" unicode="&#x3ca;" horiz-adv-x="488" 
d="M103 1010h282v-1010h-282v1010zM299 1269q0 45 33.5 76.5t80.5 31.5q48 0 81 -31.5t33 -76.5q0 -48 -36 -77.5t-78 -29.5q-43 0 -78.5 30t-35.5 77zM-39 1269q0 45 33.5 76.5t80.5 31.5t80.5 -31.5t33.5 -76.5q0 -47 -35.5 -77t-78.5 -30q-41 0 -77.5 29t-36.5 78z" />
    <glyph glyph-name="upsilondieresis" unicode="&#x3cb;" horiz-adv-x="965" 
d="M97 1010h282v-584q0 -151 18.5 -191t84.5 -40q68 0 87 40t19 191v584h281v-584q0 -177 -33.5 -264t-123 -136t-223.5 -49q-140 0 -229 45t-126 131t-37 273v584zM547 1269q0 45 33.5 76.5t80.5 31.5q48 0 81 -31.5t33 -76.5q0 -48 -36 -77.5t-78 -29.5q-43 0 -78.5 30
t-35.5 77zM209 1269q0 45 33.5 76.5t80.5 31.5t80.5 -31.5t33.5 -76.5q0 -47 -35.5 -77t-78.5 -30q-41 0 -77.5 29t-36.5 78z" />
    <glyph glyph-name="omicrontonos" unicode="&#x3cc;" horiz-adv-x="942" 
d="M882 505q0 -526 -410 -526q-411 0 -411 526q0 525 411 525q410 0 410 -525zM591 505q0 193 -26.5 261t-92.5 68q-64 0 -92 -64.5t-28 -264.5q0 -185 24 -257t96 -72q69 0 94 71.5t25 257.5zM325 1203l341 314l112 -167l-369 -231z" />
    <glyph glyph-name="upsilontonos" unicode="&#x3cd;" horiz-adv-x="965" 
d="M97 1010h282v-584q0 -151 18.5 -191t84.5 -40q68 0 87 40t19 191v584h281v-584q0 -177 -33.5 -264t-123 -136t-223.5 -49q-140 0 -229 45t-126 131t-37 273v584zM338 1203l341 314l112 -167l-369 -231z" />
    <glyph glyph-name="omegatonos" unicode="&#x3ce;" horiz-adv-x="1263" 
d="M760 756v-302q0 -126 11.5 -193t53.5 -67q94 0 94 267q0 281 -130 467l212 113q147 -195 177.5 -319.5t30.5 -256.5q0 -233 -95.5 -360.5t-269.5 -127.5q-146 0 -212 106q-66 -106 -212 -106q-179 0 -272 131t-93 350q0 201 56.5 337t152.5 248l213 -113
q-132 -187 -132 -469q0 -267 94 -267q42 0 53.5 63.5t11.5 196.5v302h256zM521 1203l341 314l112 -167l-369 -231z" />
    <glyph glyph-name="afii10023" unicode="&#x401;" horiz-adv-x="977" 
d="M129 1365h830v-234h-530v-317h412v-235h-412v-335h530v-244h-830v1365zM598 1601q0 45 33.5 76.5t80.5 31.5q48 0 81 -31.5t33 -76.5q0 -48 -36 -77.5t-78 -29.5q-43 0 -78.5 30t-35.5 77zM260 1601q0 45 33.5 76.5t80.5 31.5t80.5 -31.5t33.5 -76.5q0 -47 -35.5 -77
t-78.5 -30q-41 0 -77.5 29t-36.5 78z" />
    <glyph glyph-name="afii10051" unicode="&#x402;" horiz-adv-x="1038" 
d="M497 -325v235q73 -18 119 -18q38 0 49 23.5t11 84.5v660q0 100 -17 133.5t-77 33.5q-66 0 -91.5 -41t-25.5 -134v-652h-300v1131h-182v234h851v-234h-369v-211q75 130 244 130q100 0 158.5 -48t74.5 -123.5t16 -218.5l-1 -660q0 -345 -297 -345q-64 0 -163 20z" />
    <glyph glyph-name="afii10052" unicode="&#x403;" horiz-adv-x="959" 
d="M959 1365v-248h-530v-1117h-300v1365h830zM299 1554l341 314l112 -167l-369 -231z" />
    <glyph glyph-name="afii10053" unicode="&#x404;" horiz-adv-x="1144" 
d="M774 820v-229h-406q25 -369 235 -369q199 0 249 245l266 -59q-58 -432 -515 -432q-276 0 -405.5 195t-129.5 505q0 335 135 524t400 189q236 0 361.5 -112t148.5 -264l-294 -65q-38 195 -212 195q-205 0 -235 -323h402z" />
    <glyph glyph-name="afii10054" unicode="&#x405;" 
d="M964 1068l-248 -95q-53 169 -194 169q-66 0 -104.5 -37.5t-38.5 -87.5q0 -58 45.5 -92.5t190.5 -90.5q132 -49 207.5 -97t122 -130.5t46.5 -191.5q0 -191 -131.5 -313.5t-352.5 -122.5q-371 0 -474 375l262 75q48 -206 219 -206q78 0 126.5 40.5t48.5 106.5
q0 50 -34 89.5t-156 83.5q-157 56 -234 101.5t-127 130t-50 192.5q0 184 118.5 301.5t313.5 117.5q356 0 444 -318z" />
    <glyph glyph-name="afii10055" unicode="&#x406;" horiz-adv-x="558" 
d="M129 1365h300v-1365h-300v1365z" />
    <glyph glyph-name="afii10056" unicode="&#x407;" horiz-adv-x="558" 
d="M129 1365h300v-1365h-300v1365zM334 1601q0 45 33.5 76.5t80.5 31.5q48 0 81 -31.5t33 -76.5q0 -48 -36 -77.5t-78 -29.5q-43 0 -78.5 30t-35.5 77zM-4 1601q0 45 33.5 76.5t80.5 31.5t80.5 -31.5t33.5 -76.5q0 -47 -35.5 -77t-78.5 -30q-41 0 -77.5 29t-36.5 78z" />
    <glyph glyph-name="afii10057" unicode="&#x408;" horiz-adv-x="663" 
d="M241 1365h300v-906q0 -173 -25.5 -269.5t-105.5 -153.5t-237 -57q-68 0 -183 21v251q72 -14 121 -14q79 0 104.5 42.5t25.5 179.5v906z" />
    <glyph glyph-name="afii10058" unicode="&#x409;" horiz-adv-x="1582" 
d="M824 861h229q177 0 281.5 -41.5t160 -140t55.5 -253.5q0 -142 -55.5 -241t-145 -142t-279.5 -43h-298l-271 1073l-256 -1073h-277l375 1365h337zM1007 221h33q67 0 104 14t63 61.5t26 123.5q0 92 -35 149t-158 57h-149z" />
    <glyph glyph-name="afii10059" unicode="&#x40a;" horiz-adv-x="1694" 
d="M1059 1365v-504h106q178 0 282 -42t159.5 -140.5t55.5 -253.5q0 -143 -57.5 -243t-147.5 -141t-305 -41h-393v569h-330v-569h-300v1365h300v-561h330v561h300zM1059 235h93q66 0 102.5 13t63.5 59t27 121q0 88 -35.5 143t-157.5 55h-93v-391z" />
    <glyph glyph-name="afii10060" unicode="&#x40b;" horiz-adv-x="1066" 
d="M957 0h-281v660q0 100 -17 133.5t-77 33.5q-66 0 -91.5 -41t-25.5 -134v-652h-300v1131h-182v234h851v-234h-369v-211q75 130 244 130q100 0 158.5 -48t74.5 -123.5t16 -218.5z" />
    <glyph glyph-name="afii10061" unicode="&#x40c;" horiz-adv-x="1081" 
d="M129 1365h300v-569l332 569h303l-342 -502l371 -863h-310l-240 629l-114 -165v-464h-300v1365zM413 1554l341 314l112 -167l-369 -231z" />
    <glyph glyph-name="afii10062" unicode="&#x40e;" horiz-adv-x="934" 
d="M371 408l-412 957h306l235 -596l204 596h278l-365 -1026q-71 -201 -151.5 -270t-223.5 -69h-127v253h127q30 0 60.5 19.5t68.5 135.5zM179 1733h161q42 -105 170 -105q127 0 170 105h161q-71 -251 -331 -251q-258 0 -331 251z" />
    <glyph glyph-name="afii10145" unicode="&#x40f;" horiz-adv-x="1186" 
d="M483 0h-354v1365h300v-1109h328v1109h300v-1365h-357l-21 -290l-179 3z" />
    <glyph glyph-name="afii10017" unicode="&#x410;" 
d="M370 1365h302l390 -1365h-307l-68 282h-384l-67 -282h-276zM630 516l-137 557l-133 -557h270z" />
    <glyph glyph-name="afii10018" unicode="&#x411;" horiz-adv-x="1093" 
d="M129 1365h776v-234h-476v-270h105q281 0 389.5 -112t108.5 -325q0 -163 -72.5 -266.5t-169.5 -130.5t-268 -27h-393v1365zM429 626v-391h93q100 0 146.5 43t46.5 148q0 91 -36 145.5t-157 54.5h-93z" />
    <glyph glyph-name="afii10019" unicode="&#x412;" horiz-adv-x="1151" 
d="M129 1365h466q164 0 247.5 -26t140 -114t56.5 -219q0 -229 -195 -294q232 -82 232 -335q0 -133 -63 -224.5t-155.5 -122t-262.5 -30.5h-466v1365zM417 814h97q145 0 182.5 52t37.5 119q0 62 -37.5 110.5t-160.5 48.5h-119v-330zM417 235h147q207 0 207 178
q0 99 -51.5 139.5t-155.5 40.5h-147v-358z" />
    <glyph glyph-name="afii10020" unicode="&#x413;" horiz-adv-x="959" 
d="M959 1365v-234h-530v-1131h-300v1365h830z" />
    <glyph glyph-name="afii10021" unicode="&#x414;" horiz-adv-x="1061" 
d="M56 249l297 1116h385l269 -1116h85v-526h-222l-27 277h-625l-26 -277h-222v526h86zM329 249h374l-164 828h-38z" />
    <glyph glyph-name="afii10022" unicode="&#x415;" horiz-adv-x="977" 
d="M129 1365h830v-234h-530v-317h412v-235h-412v-335h530v-244h-830v1365z" />
    <glyph glyph-name="afii10024" unicode="&#x416;" horiz-adv-x="1469" 
d="M1118 777l431 -777h-317l-323 595l-13 -9v-586h-300v586l-10 9l-327 -595h-289l404 710l-375 655h314l262 -499l21 -5v504h300v-504l11 5l272 499h291z" />
    <glyph glyph-name="afii10025" unicode="&#x417;" horiz-adv-x="1013" 
d="M322 951l-261 49q55 237 171 311.5t288 74.5q187 0 295.5 -96t108.5 -272q0 -214 -203 -302q230 -69 230 -327q0 -192 -121 -301.5t-363 -109.5q-234 0 -318.5 123t-125.5 324l265 43q30 -166 76.5 -205.5t116.5 -39.5q80 0 120.5 52t40.5 133q0 190 -210 190h-45v220h45
q66 0 104 12t64 52t26 106q0 166 -140 166q-48 0 -94.5 -27.5t-69.5 -175.5z" />
    <glyph glyph-name="afii10026" unicode="&#x418;" horiz-adv-x="1208" 
d="M429 140v-140h-300v1365h300v-766l45 83l305 532v151h300v-1365h-300v707l1 54l-48 -90z" />
    <glyph glyph-name="afii10027" unicode="&#x419;" horiz-adv-x="1208" 
d="M429 140v-140h-300v1365h300v-766l45 83l305 532v151h300v-1365h-300v707l1 54l-48 -90zM289 1733h161q42 -105 170 -105q127 0 170 105h161q-71 -251 -331 -251q-258 0 -331 251z" />
    <glyph glyph-name="afii10028" unicode="&#x41a;" horiz-adv-x="1081" 
d="M129 1365h300v-569l332 569h303l-342 -502l371 -863h-310l-240 629l-114 -165v-464h-300v1365z" />
    <glyph glyph-name="afii10029" unicode="&#x41b;" horiz-adv-x="1049" 
d="M245 0h-277l375 1365h337l390 -1365h-298l-271 1073z" />
    <glyph glyph-name="afii10030" unicode="&#x41c;" horiz-adv-x="1535" 
d="M129 1365h440l193 -843l217 843h427v-1365h-281v1143l-279 -1143h-218l-255 1143v-1143h-244v1365z" />
    <glyph glyph-name="afii10031" unicode="&#x41d;" horiz-adv-x="1186" 
d="M129 1365h300v-551h328v551h300v-1365h-300v558h-328v-558h-300v1365z" />
    <glyph glyph-name="afii10032" unicode="&#x41e;" horiz-adv-x="1151" 
d="M1071 683q0 -704 -495 -704q-246 0 -371 179.5t-125 524.5q0 703 495 703q242 0 369 -176t127 -527zM755 683q0 276 -43 367.5t-137 91.5q-93 0 -136 -92t-43 -367q0 -270 42.5 -365t136.5 -95q93 0 136.5 91t43.5 369z" />
    <glyph glyph-name="afii10033" unicode="&#x41f;" horiz-adv-x="1186" 
d="M129 1365h928v-1365h-300v1109h-328v-1109h-300v1365z" />
    <glyph glyph-name="afii10034" unicode="&#x420;" 
d="M129 1365h393q179 0 277.5 -30t165.5 -135.5t67 -261.5q0 -150 -54 -248t-149.5 -141.5t-293.5 -43.5h-106v-505h-300v1365zM429 1144v-404h93q123 0 158.5 57t35.5 148q0 77 -27.5 124.5t-64 61t-102.5 13.5h-93z" />
    <glyph glyph-name="afii10035" unicode="&#x421;" horiz-adv-x="1117" 
d="M793 497l277 -17q-15 -222 -141 -361.5t-333 -139.5q-252 0 -384 187t-132 515q0 331 131 518t389 187q427 0 465 -528l-274 -20q-11 304 -190 304q-94 0 -149.5 -98t-55.5 -380q0 -252 51 -346.5t153 -94.5q164 0 193 274z" />
    <glyph glyph-name="afii10036" unicode="&#x422;" horiz-adv-x="802" 
d="M-24 1365h851v-256h-279v-1109h-300v1109h-272v256z" />
    <glyph glyph-name="afii10037" unicode="&#x423;" horiz-adv-x="934" 
d="M371 408l-412 957h306l235 -596l204 596h278l-365 -1026q-71 -201 -151.5 -270t-223.5 -69h-127v253h127q30 0 60.5 19.5t68.5 135.5z" />
    <glyph glyph-name="afii10038" unicode="&#x424;" horiz-adv-x="1330" 
d="M537 126q-253 41 -359.5 194t-106.5 364q0 223 117.5 371.5t348.5 186.5v164h256v-165q167 -23 274 -111t149.5 -204.5t42.5 -241.5q0 -472 -466 -556v-168h-256v166zM537 1010q-176 -66 -176 -335q0 -250 176 -318v653zM793 357q176 67 176 336q0 249 -176 317v-653z
" />
    <glyph glyph-name="afii10039" unicode="&#x425;" horiz-adv-x="977" 
d="M10 1365h334l163 -355l172 355h287l-322 -617l364 -748h-329l-199 446l-224 -446h-287l375 700z" />
    <glyph glyph-name="afii10040" unicode="&#x426;" horiz-adv-x="1263" 
d="M1067 256h204v-533h-222l-27 277h-883v1365h300v-1109h328v1109h300v-1109z" />
    <glyph glyph-name="afii10041" unicode="&#x427;" horiz-adv-x="1124" 
d="M695 0v500q-101 -78 -232 -78q-112 0 -196.5 53.5t-125 145t-40.5 258.5v486h300v-497q0 -111 25 -156t90 -45q96 0 179 96v602h300v-1365h-300z" />
    <glyph glyph-name="afii10042" unicode="&#x428;" horiz-adv-x="1677" 
d="M139 0v1365h300v-1109h250v1109h300v-1109h250v1109h299v-1365h-1399z" />
    <glyph glyph-name="afii10043" unicode="&#x429;" horiz-adv-x="1722" 
d="M1528 256h205v-533h-222l-27 277h-1355v1365h300v-1109h250v1109h300v-1109h250v1109h299v-1109z" />
    <glyph glyph-name="afii10044" unicode="&#x42a;" horiz-adv-x="1206" 
d="M268 0v1093h-320v272h620v-504h106q281 0 389 -112.5t108 -325.5q0 -162 -72.5 -265.5t-169.5 -130.5t-268 -27h-393zM568 221h93q65 0 102 13.5t64.5 60.5t27.5 125q0 93 -36 149.5t-158 56.5h-93v-405z" />
    <glyph glyph-name="afii10045" unicode="&#x42b;" horiz-adv-x="1605" 
d="M129 0v1365h300v-504h106q280 0 388.5 -112t108.5 -325q0 -163 -72.5 -266.5t-169.5 -130.5t-268 -27h-393zM429 221h93q66 0 103 14t64 61.5t27 123.5q0 92 -35.5 149t-158.5 57h-93v-405zM1176 1365h300v-1365h-300v1365z" />
    <glyph glyph-name="afii10046" unicode="&#x42c;" horiz-adv-x="1067" 
d="M129 0v1365h300v-504h106q280 0 388.5 -112t108.5 -325q0 -163 -72.5 -266.5t-169.5 -130.5t-268 -27h-393zM429 221h93q66 0 103 14t64 61.5t27 123.5q0 92 -35.5 149t-158.5 57h-93v-405z" />
    <glyph glyph-name="afii10047" unicode="&#x42d;" horiz-adv-x="1144" 
d="M371 820h401q-29 323 -235 323q-173 0 -211 -195l-294 65q22 152 148 264t362 112q265 0 400 -189t135 -524q0 -197 -56 -358t-172.5 -251.5t-307.5 -90.5q-456 0 -514 432l266 59q49 -245 249 -245q210 0 235 369h-406v229z" />
    <glyph glyph-name="afii10048" unicode="&#x42e;" horiz-adv-x="1650" 
d="M593 558h-164v-558h-300v1365h300v-551h164q58 572 494 572q247 0 371 -180.5t124 -522.5q0 -704 -495 -704q-440 0 -494 579zM1266 683q0 277 -43 368t-136 91q-94 0 -136.5 -92t-42.5 -367q0 -276 43 -368t136 -92q92 0 135.5 90t43.5 370z" />
    <glyph glyph-name="afii10049" unicode="&#x42f;" horiz-adv-x="1116" 
d="M987 0h-300v540h-150l-182 -540h-327l251 597q-192 104 -192 360q0 109 38.5 196.5t106.5 138t134.5 62t191.5 11.5h429v-1365zM567 1144q-67 0 -101.5 -15.5t-60.5 -59t-26 -111.5q0 -197 176 -197h132v383h-120z" />
    <glyph glyph-name="afii10065" unicode="&#x430;" horiz-adv-x="977" 
d="M374 689l-267 26q19 152 129.5 234t278.5 82q142 0 228 -54.5t108.5 -126.5t22.5 -223v-403q0 -188 17 -224h-261q-14 41 -14 155q-93 -176 -277 -176q-118 0 -192 70.5t-74 205.5q0 169 112 261.5t408 110.5v38q0 101 -20.5 140t-79.5 39q-108 0 -119 -155zM593 483
q-123 -14 -175.5 -54.5t-52.5 -136.5q0 -128 94 -128q51 0 92.5 57.5t41.5 211.5v50z" />
    <glyph glyph-name="afii10066" unicode="&#x431;" horiz-adv-x="985" 
d="M578 1450h257q0 -74 -30 -117t-96 -78t-168 -61q-72 -19 -101.5 -35t-53.5 -54.5t-45 -115.5q79 63 196 63q176 0 282 -142t106 -393q0 -257 -113.5 -399t-321.5 -142q-430 0 -430 579q0 353 96.5 556t283.5 240q88 17 111.5 34.5t26.5 64.5zM486 833q-152 0 -152 -327
q0 -311 154 -311q147 0 147 311q0 327 -149 327z" />
    <glyph glyph-name="afii10067" unicode="&#x432;" horiz-adv-x="995" 
d="M104 0v1010h512q95 0 151.5 -20.5t101 -84.5t44.5 -152q0 -139 -126 -214q156 -75 156 -243q0 -130 -76 -213t-211 -83h-552zM404 618h154q49 0 71 21.5t22 78.5q0 42 -14 75t-79 33h-154v-208zM404 218h168q58 0 78 28t20 85q0 55 -21 84.5t-77 29.5h-168v-227z" />
    <glyph glyph-name="afii10068" unicode="&#x433;" horiz-adv-x="684" 
d="M104 1010h573v-219h-291v-791h-282v1010z" />
    <glyph glyph-name="afii10069" unicode="&#x434;" horiz-adv-x="879" 
d="M64 218l203 792h366l182 -792h82v-443h-204l-24 224h-459l-25 -224h-204v443h83zM275 218h258l-106 521h-18z" />
    <glyph glyph-name="afii10070" unicode="&#x435;" horiz-adv-x="942" 
d="M881 458h-530v-56q0 -136 37 -182t97 -46q129 0 145 173l251 -16q-67 -352 -401 -352q-206 0 -313 139t-107 372q0 263 113.5 401.5t304.5 138.5q172 0 287.5 -122.5t115.5 -449.5zM615 621q1 18 1 28q0 195 -132 195q-130 0 -131 -223h262z" />
    <glyph glyph-name="afii10072" unicode="&#x436;" horiz-adv-x="1220" 
d="M963 607l314 -607h-291l-228 436l-6 -2v-434h-265v433l-7 3l-236 -436h-272l309 543l-280 467h285l172 -325l29 -14v339h265v-339l24 15l177 324h276z" />
    <glyph glyph-name="afii10073" unicode="&#x437;" horiz-adv-x="865" 
d="M295 610q101 0 130 5t49 29.5t20 76.5q0 123 -92 123q-84 0 -108 -142l-251 48q50 280 377 280q180 0 272 -83.5t92 -202.5q0 -140 -135 -215q161 -74 161 -234q0 -127 -89.5 -222.5t-297.5 -95.5q-135 0 -232 54t-169 247l241 43q44 -155 147 -155q46 0 77.5 36
t31.5 104q0 52 -24 78.5t-58.5 30.5t-141.5 4v191z" />
    <glyph glyph-name="afii10074" unicode="&#x438;" horiz-adv-x="998" 
d="M386 121v-121h-282v1010h282l-1 -485l228 355v130h282v-1010h-282v471l-46 -76z" />
    <glyph glyph-name="afii10075" unicode="&#x439;" horiz-adv-x="998" 
d="M386 121v-121h-282v1010h282l-1 -485l228 355v130h282v-1010h-282v471l-46 -76zM177 1383h161q42 -105 170 -105q127 0 170 105h161q-71 -251 -331 -251q-258 0 -331 251z" />
    <glyph glyph-name="afii10076" unicode="&#x43a;" horiz-adv-x="942" 
d="M104 1010h282v-390l284 390h256l-255 -339l280 -671h-304l-158 469l-103 -142v-327h-282v1010z" />
    <glyph glyph-name="afii10077" unicode="&#x43b;" horiz-adv-x="825" 
d="M-28 0l300 1010h294l278 -1010h-291l-153 656l-169 -656h-259z" />
    <glyph glyph-name="afii10078" unicode="&#x43c;" horiz-adv-x="1282" 
d="M104 0v1010h365l185 -685l180 685h345v-1010h-258v568l-159 -568h-266l-154 564v-564h-238z" />
    <glyph glyph-name="afii10079" unicode="&#x43d;" horiz-adv-x="995" 
d="M104 0v1010h282v-362h224v362h282v-1010h-282v429h-224v-429h-282z" />
    <glyph glyph-name="afii10080" unicode="&#x43e;" horiz-adv-x="942" 
d="M882 505q0 -526 -410 -526q-411 0 -411 526q0 525 411 525q410 0 410 -525zM591 505q0 193 -26.5 261t-92.5 68q-64 0 -92 -64.5t-28 -264.5q0 -185 24 -257t96 -72q69 0 94 71.5t25 257.5z" />
    <glyph glyph-name="afii10081" unicode="&#x43f;" horiz-adv-x="958" 
d="M104 0v1010h751v-1010h-281v826h-188v-826h-282z" />
    <glyph glyph-name="afii10082" unicode="&#x440;" horiz-adv-x="977" 
d="M104 1010h260v-151q83 164 230 164q139 0 231 -123.5t92 -377.5q0 -266 -90 -401t-253 -135q-117 0 -193 89v-417h-277v1352zM381 413q0 -145 23.5 -188.5t95.5 -43.5q64 0 95 58t31 281q0 186 -27 252t-91 66q-53 0 -90 -41.5t-37 -192.5v-191z" />
    <glyph glyph-name="afii10083" unicode="&#x441;" horiz-adv-x="907" 
d="M858 638l-262 -10q-6 93 -30 140.5t-81 47.5q-142 0 -142 -298q0 -173 34.5 -242t102.5 -69q106 0 116 187l262 -17q-35 -398 -396 -398q-195 0 -298.5 131.5t-103.5 391.5q0 258 108.5 393t304.5 135q354 0 385 -392z" />
    <glyph glyph-name="afii10084" unicode="&#x442;" horiz-adv-x="747" 
d="M-7 1010h762v-224h-244v-786h-281v786h-237v224z" />
    <glyph glyph-name="afii10085" unicode="&#x443;" horiz-adv-x="733" 
d="M-28 1010h282l136 -617l131 617h243l-304 -1026q-44 -147 -75 -206t-93 -97.5t-158 -38.5q-59 0 -120 16v222q42 -6 79 -6q82 0 112.5 27t57.5 118z" />
    <glyph glyph-name="afii10086" unicode="&#x444;" horiz-adv-x="1187" 
d="M477 -338v343q-199 29 -308 165t-109 334q0 428 417 518v326h232v-326q417 -90 417 -514q0 -203 -109.5 -338.5t-307.5 -164.5v-343h-232zM477 209v606q-144 -70 -144 -303t144 -303zM709 209q144 71 144 303q0 233 -144 303v-606z" />
    <glyph glyph-name="afii10087" unicode="&#x445;" horiz-adv-x="768" 
d="M-11 1010h306l107 -234l130 234h245l-261 -446l301 -564h-305l-148 302l-169 -302h-245l299 517z" />
    <glyph glyph-name="afii10088" unicode="&#x446;" horiz-adv-x="979" 
d="M104 -1v1011h282v-792h202v792h281v-792h125v-456h-203l-25 237h-662z" />
    <glyph glyph-name="afii10089" unicode="&#x447;" horiz-adv-x="922" 
d="M536 0v336q-79 -38 -166 -38q-135 0 -213 77.5t-78 222.5v412h282v-380q0 -114 78 -114q58 0 97 31v463h282v-1010h-282z" />
    <glyph glyph-name="afii10090" unicode="&#x448;" horiz-adv-x="1412" 
d="M109 0v1010h282v-791h174v791h281v-791h175v791h281v-1010h-1193z" />
    <glyph glyph-name="afii10091" unicode="&#x449;" horiz-adv-x="1410" 
d="M104 0v1010h277v-792h181v792h277v-792h181v792h277v-792h127v-456h-202l-25 238h-1093z" />
    <glyph glyph-name="afii10092" unicode="&#x44a;" horiz-adv-x="975" 
d="M162 0v810h-219v200h501v-349h185q166 0 239 -98.5t73 -232.5q0 -143 -77 -236.5t-248 -93.5h-454zM445 197h135q27 0 58 32t31 102q0 128 -89 128h-135v-262z" />
    <glyph glyph-name="afii10093" unicode="&#x44b;" horiz-adv-x="1377" 
d="M104 0v1010h282v-349h185q165 0 238.5 -98.5t73.5 -232.5q0 -143 -77 -236.5t-248 -93.5h-454zM386 197h134q28 0 59 32t31 101q0 129 -90 129h-134v-262zM993 0v1010h281v-1010h-281z" />
    <glyph glyph-name="afii10094" unicode="&#x44c;" horiz-adv-x="917" 
d="M104 0v1010h282v-349h185q165 0 238.5 -98.5t73.5 -232.5q0 -143 -77 -236.5t-248 -93.5h-454zM386 197h134q28 0 59 32t31 101q0 129 -90 129h-134v-262z" />
    <glyph glyph-name="afii10095" unicode="&#x44d;" horiz-adv-x="881" 
d="M226 609h315q-10 128 -45.5 172.5t-98.5 44.5q-89 0 -110 -119l-264 28q78 298 375 298q189 0 309 -126t120 -390q0 -258 -104.5 -399t-313.5 -141q-325 0 -388 310l262 52q16 -131 115 -131q135 0 146 216h-318v185z" />
    <glyph glyph-name="afii10096" unicode="&#x44e;" horiz-adv-x="1353" 
d="M480 427h-95v-427h-282v1000h282v-360h100q51 390 402 390q411 0 411 -525q0 -526 -411 -526q-373 0 -407 448zM1007 505q0 193 -26 261t-94 68q-63 0 -91.5 -64t-28.5 -265q0 -212 30 -270.5t91 -58.5q69 0 94 71.5t25 257.5z" />
    <glyph glyph-name="afii10097" unicode="&#x44f;" horiz-adv-x="974" 
d="M589 0v383h-125l-154 -383h-288l204 442q-141 80 -141 252q0 125 71.5 220.5t276.5 95.5h438v-1010h-282zM589 585v241h-121q-66 0 -88 -30.5t-22 -97.5q0 -49 20 -81t103 -32h108z" />
    <glyph glyph-name="afii10071" unicode="&#x451;" horiz-adv-x="942" 
d="M881 458h-530v-56q0 -136 37 -182t97 -46q129 0 145 173l251 -16q-67 -352 -401 -352q-206 0 -313 139t-107 372q0 263 113.5 401.5t304.5 138.5q172 0 287.5 -122.5t115.5 -449.5zM615 621q1 18 1 28q0 195 -132 195q-130 0 -131 -223h262zM546 1269q0 45 33.5 76.5
t80.5 31.5q48 0 81 -31.5t33 -76.5q0 -48 -36 -77.5t-78 -29.5q-43 0 -78.5 30t-35.5 77zM208 1269q0 45 33.5 76.5t80.5 31.5t80.5 -31.5t33.5 -76.5q0 -47 -35.5 -77t-78.5 -30q-41 0 -77.5 29t-36.5 78z" />
    <glyph glyph-name="afii10099" unicode="&#x452;" horiz-adv-x="965" 
d="M101 0v1085h-147v189h147v113h278v-113h328v-189h-328v-148q78 72 205 72q117 0 189 -69t92.5 -184t20.5 -438q0 -288 -23 -397t-102 -178t-203 -69q-24 0 -70 3l-24 204q27 -3 42 -3q47 0 82.5 53.5t35.5 394.5q0 298 -20 374t-81 76q-64 0 -104 -64t-40 -189v-523h-278
z" />
    <glyph glyph-name="afii10100" unicode="&#x453;" horiz-adv-x="684" 
d="M104 1010h573v-219h-291v-791h-282v1010zM221 1213l341 314l112 -167l-369 -231z" />
    <glyph glyph-name="afii10101" unicode="&#x454;" horiz-adv-x="882" 
d="M655 609v-185h-318q11 -216 147 -216q98 0 114 131l263 -52q-62 -310 -388 -310q-210 0 -314 141.5t-104 398.5q0 264 120 390t308 126q297 0 375 -298l-264 -28q-21 119 -110 119q-62 0 -97.5 -44t-45.5 -173h314z" />
    <glyph glyph-name="afii10102" unicode="&#x455;" horiz-adv-x="837" 
d="M770 767l-201 -60q-40 137 -148 137q-88 0 -88 -88q0 -50 33 -76t136 -62q116 -41 170 -72t91 -93.5t37 -143.5q0 -140 -101 -235t-282 -95q-341 0 -378 301l224 36q28 -151 159 -151q112 0 112 94q0 50 -33 76t-128 56q-174 56 -239 135t-65 183q0 146 102.5 234
t256.5 88q269 0 342 -264z" />
    <glyph glyph-name="afii10103" unicode="&#x456;" horiz-adv-x="488" 
d="M387 1093h-286v279h286v-279zM103 1010h282v-1010h-282v1010z" />
    <glyph glyph-name="afii10104" unicode="&#x457;" horiz-adv-x="488" 
d="M103 1010h282v-1010h-282v1010zM299 1269q0 45 33.5 76.5t80.5 31.5q48 0 81 -31.5t33 -76.5q0 -48 -36 -77.5t-78 -29.5q-43 0 -78.5 30t-35.5 77zM-39 1269q0 45 33.5 76.5t80.5 31.5t80.5 -31.5t33.5 -76.5q0 -47 -35.5 -77t-78.5 -30q-41 0 -77.5 29t-36.5 78z" />
    <glyph glyph-name="afii10105" unicode="&#x458;" horiz-adv-x="488" 
d="M397 1093h-286v279h286v-279zM113 1010h282v-977q0 -156 -17 -234t-81 -123.5t-163 -45.5q-63 0 -151 14v231q21 -3 37 -3q62 0 77.5 31t15.5 138v969z" />
    <glyph glyph-name="afii10106" unicode="&#x459;" horiz-adv-x="1282" 
d="M674 661h268q166 0 239 -98t73 -233q0 -143 -77 -236.5t-248 -93.5h-396l-112 648l-189 -648h-260l330 1010h294zM769 203h122q37 0 63.5 31t26.5 96q0 129 -90 129h-173z" />
    <glyph glyph-name="afii10107" unicode="&#x45a;" horiz-adv-x="1424" 
d="M893 1010v-349h185q166 0 239 -98t73 -233q0 -143 -76.5 -236.5t-248.5 -93.5h-454v429h-225v-429h-282v1010h282v-362h225v362h282zM893 197h134q27 0 58.5 32t31.5 102q0 128 -90 128h-134v-262z" />
    <glyph glyph-name="afii10108" unicode="&#x45b;" horiz-adv-x="973" 
d="M101 1274v117h278v-117h322v-189h-322v-167q84 89 209 89q110 0 178.5 -48.5t96 -130t27.5 -231.5v-597h-277v575q0 121 -19.5 161.5t-66.5 40.5q-59 0 -103.5 -66t-44.5 -188v-523h-278v1085h-147v189h147z" />
    <glyph glyph-name="afii10109" unicode="&#x45c;" horiz-adv-x="942" 
d="M104 1010h282v-390l284 390h256l-255 -339l280 -671h-304l-158 469l-103 -142v-327h-282v1010zM345 1209l341 314l112 -167l-369 -231z" />
    <glyph glyph-name="afii10110" unicode="&#x45e;" horiz-adv-x="733" 
d="M-28 1010h282l136 -617l131 617h243l-304 -1026q-44 -147 -75 -206t-93 -97.5t-158 -38.5q-59 0 -120 16v222q42 -6 79 -6q82 0 112.5 27t57.5 118zM37 1383h161q42 -105 170 -105q127 0 170 105h161q-71 -251 -331 -251q-258 0 -331 251z" />
    <glyph glyph-name="afii10193" unicode="&#x45f;" horiz-adv-x="971" 
d="M103 0v1010h282v-792h200v792h282v-1010h-268l-17 -238h-194l-18 238h-267z" />
    <glyph glyph-name="afii10050" unicode="&#x490;" horiz-adv-x="959" 
d="M959 1620v-503h-530v-1117h-300v1365h588v255h242z" />
    <glyph glyph-name="afii10098" unicode="&#x491;" horiz-adv-x="712" 
d="M424 1028v208h282v-426h-320v-810h-282v1028h320z" />
    <glyph glyph-name="Wgrave" unicode="&#x1e80;" horiz-adv-x="1465" 
d="M-11 1365h307l143 -945l179 945h275l168 -947l167 947h253l-293 -1372h-269l-182 949l-186 -949h-266zM937 1535l-84 -84l-369 231l112 167z" />
    <glyph glyph-name="wgrave" unicode="&#x1e81;" horiz-adv-x="1186" 
d="M-17 1010h274l119 -614l113 614h274l92 -614l136 614h221l-253 -1010h-236l-130 687l-127 -687h-229zM812 1210l-84 -84l-369 231l112 167z" />
    <glyph glyph-name="Wacute" unicode="&#x1e82;" horiz-adv-x="1465" 
d="M-11 1365h307l143 -945l179 945h275l168 -947l167 947h253l-293 -1372h-269l-182 949l-186 -949h-266zM566 1535l341 314l112 -167l-369 -231z" />
    <glyph glyph-name="wacute" unicode="&#x1e83;" horiz-adv-x="1186" 
d="M-17 1010h274l119 -614l113 614h274l92 -614l136 614h221l-253 -1010h-236l-130 687l-127 -687h-229zM442 1220l341 314l112 -167l-369 -231z" />
    <glyph glyph-name="Wdieresis" unicode="&#x1e84;" horiz-adv-x="1465" 
d="M-11 1365h307l143 -945l179 945h275l168 -947l167 947h253l-293 -1372h-269l-182 949l-186 -949h-266zM811 1601q0 45 33.5 76.5t80.5 31.5q48 0 81 -31.5t33 -76.5q0 -48 -36 -77.5t-78 -29.5q-43 0 -78.5 30t-35.5 77zM473 1601q0 45 33.5 76.5t80.5 31.5t80.5 -31.5
t33.5 -76.5q0 -47 -35.5 -77t-78.5 -30q-41 0 -77.5 29t-36.5 78z" />
    <glyph glyph-name="wdieresis" unicode="&#x1e85;" horiz-adv-x="1186" 
d="M-17 1010h274l119 -614l113 614h274l92 -614l136 614h221l-253 -1010h-236l-130 687l-127 -687h-229zM659 1264q0 45 33.5 76.5t80.5 31.5q48 0 81 -31.5t33 -76.5q0 -48 -36 -77.5t-78 -29.5q-43 0 -78.5 30t-35.5 77zM321 1264q0 45 33.5 76.5t80.5 31.5t80.5 -31.5
t33.5 -76.5q0 -47 -35.5 -77t-78.5 -30q-41 0 -77.5 29t-36.5 78z" />
    <glyph glyph-name="Ygrave" unicode="&#x1ef2;" horiz-adv-x="907" 
d="M-58 1365h330l193 -498l206 498h293l-379 -788v-577h-300v577zM614 1535l-84 -84l-369 231l112 167z" />
    <glyph glyph-name="ygrave" unicode="&#x1ef3;" horiz-adv-x="733" 
d="M-28 1010h282l136 -617l131 617h243l-304 -1026q-44 -147 -75 -206t-93 -97.5t-158 -38.5q-59 0 -120 16v222q42 -6 79 -6q82 0 112.5 27t57.5 118zM573 1213l-84 -84l-369 231l112 167z" />
    <glyph glyph-name="afii00208" unicode="&#x2015;" horiz-adv-x="1361" 
d="M76 622h1209v-209h-1209v209z" />
    <glyph glyph-name="underscoredbl" unicode="&#x2017;" horiz-adv-x="1024" 
d="M0 -99h1024v-159h-1024v159zM0 -339h1024v-159h-1024v159z" />
    <glyph glyph-name="quotereversed" unicode="&#x201b;" horiz-adv-x="488" 
d="M372 1365v-302h-113l113 -268h-110l-146 268v302h256z" />
    <glyph glyph-name="minute" unicode="&#x2032;" horiz-adv-x="397" 
d="M211 797h-171l156 568h242z" />
    <glyph glyph-name="second" unicode="&#x2033;" horiz-adv-x="759" 
d="M211 797h-171l156 568h242zM600 797h-170l155 568h242z" />
    <glyph glyph-name="exclamdbl" unicode="&#x203c;" horiz-adv-x="1110" 
d="M115 1365h360l-89 -958h-183zM155 302h279v-302h-279v302zM621 1365h360l-89 -958h-183zM661 302h279v-302h-279v302z" />
    <glyph glyph-name="uni203E" unicode="&#x203e;" horiz-adv-x="1147" 
d="M-42 1869h1231v-74h-1231v74z" />
    <glyph glyph-name="uni2044" unicode="&#x2044;" horiz-adv-x="176" 
d="M329 1365h165l-651 -1365h-161z" />
    <glyph glyph-name="nsuperior" unicode="&#x207f;" horiz-adv-x="662" 
d="M68 1160h167v-86q62 98 177 98q75 0 120.5 -29.5t58 -72t12.5 -126.5v-398h-213v398q0 70 -47 70q-22 0 -42 -16.5t-20 -94.5v-357h-213v614z" />
    <glyph glyph-name="lira" unicode="&#x20a4;" 
d="M583 635h239v-178h-246q-24 -122 -143 -225h151q154 0 210 56t85 149l221 -83q-25 -110 -66.5 -179.5t-101.5 -108t-129.5 -52.5t-218.5 -14h-567v232h105q68 0 100 17t56 65.5t32 142.5h-161v178h155l-17 101h-138v178h114q-4 57 -4 87q0 171 96 278t277 107
q278 0 345 -258l-217 -103q-32 143 -127 143q-91 0 -91 -141q0 -39 8 -113h272v-178h-253z" />
    <glyph glyph-name="peseta" unicode="&#x20a7;" horiz-adv-x="1969" 
d="M129 1365h393q179 0 277.5 -30t165.5 -135.5t67 -261.5q0 -150 -54 -248t-149.5 -141.5t-293.5 -43.5h-106v-505h-300v1365zM429 1144v-404h93q123 0 158.5 57t35.5 148q0 77 -27.5 124.5t-64 61t-102.5 13.5h-93zM1104 785l169 15v-186h126v-160h-126v-198
q0 -68 9.5 -85t52.5 -17q26 0 73 3v-154q-74 -15 -129 -15q-85 0 -132.5 31t-61.5 77t-14 143v215h-83v160h101zM1934 462l-160 -43q-20 79 -80 79q-49 0 -49 -45q0 -21 16.5 -35.5t84.5 -34.5q133 -38 170.5 -87t37.5 -103q0 -85 -69.5 -145t-191.5 -60q-227 0 -259 187
l176 25q15 -85 88 -85q62 0 62 51q0 24 -18.5 36t-76.5 30q-138 42 -175 91t-37 104q0 89 70.5 144t176.5 55q183 0 234 -164z" />
    <glyph glyph-name="afii61248" unicode="&#x2105;" horiz-adv-x="1582" 
d="M469 1099q-7 54 -19 80.5t-48 26.5q-39 0 -62.5 -35.5t-23.5 -169.5q0 -174 85 -174q34 0 48 23t22 102l221 -17q-31 -295 -302 -295q-151 0 -228.5 99.5t-77.5 271.5q0 184 82.5 281t233.5 97q252 0 289 -268zM1032 1365h165l-651 -1365h-161zM1497 357
q0 -191 -83.5 -286t-235.5 -95q-155 0 -236 99t-81 276t81 275.5t239 98.5q146 0 231 -93.5t85 -274.5zM1263 359q0 196 -83 196q-84 0 -84 -196t84 -196q83 0 83 196z" />
    <glyph glyph-name="afii61289" unicode="&#x2113;" horiz-adv-x="1201" 
d="M623 542q-56 -290 -56 -363q0 -64 31 -64q36 0 81 96q20 42 47 42q38 0 38 -45q0 -81 -68.5 -160.5t-161.5 -79.5q-76 0 -121 64.5t-45 235.5q0 35 3 91q-52 -55 -68 -55q-13 0 -26.5 16t-13.5 41q0 26 27 57q68 76 97 112q61 353 166.5 603t264.5 250q78 0 122 -55
t44 -140q0 -286 -361 -646zM653 729q90 100 147.5 224t57.5 220q0 73 -36 73q-76 0 -169 -517z" />
    <glyph glyph-name="afii61352" unicode="&#x2116;" horiz-adv-x="1829" 
d="M129 1365h333l351 -848v848h232v-1365h-268l-416 988v-988h-232v1365zM1756 693q0 -324 -279 -324t-279 319t279 319t279 -314zM1537 688q0 83 -10.5 128t-49.5 45t-50 -44.5t-11 -129.5q0 -67 9 -119.5t52 -52.5q42 0 51 51.5t9 121.5zM1198 210h558v-210h-558v210z" />
    <glyph glyph-name="estimated" unicode="&#x212e;" horiz-adv-x="1229" 
d="M321 531v-371q120 -121 298 -121q254 0 395 246l72 -43q-118 -170 -231.5 -223t-235.5 -53q-232 0 -380.5 158.5t-148.5 406.5q0 252 149.5 408.5t379.5 156.5q214 0 366 -142t163 -423h-827zM917 605v297q-124 121 -300 121q-175 0 -296 -122v-296h596z" />
    <glyph glyph-name="oneeighth" unicode="&#x215b;" horiz-adv-x="1640" 
d="M282 1372h171v-665h144v-161h-516v161h147v412q-72 -57 -147 -88v190q123 56 201 151zM1038 1365h165l-651 -1365h-161zM1410 448q147 -78 147 -209q0 -101 -80.5 -176t-241.5 -75q-158 0 -231 67.5t-73 162.5q0 119 150 186q-124 68 -124 188q0 96 73.5 167.5
t221.5 71.5q147 0 214 -64t67 -149q0 -106 -123 -170zM1286 505q49 48 49 99q0 82 -80 82q-85 0 -85 -70q0 -60 116 -111zM1202 343q-69 -44 -69 -108q0 -95 109 -95q49 0 75.5 22t26.5 55q0 64 -142 126z" />
    <glyph glyph-name="threeeighths" unicode="&#x215c;" horiz-adv-x="1640" 
d="M223 1112l-200 33q65 232 308 232q132 0 203.5 -62.5t71.5 -157.5q0 -121 -133 -180q150 -52 150 -197q0 -112 -83 -179t-219 -67q-282 0 -316 263l203 30q8 -120 97 -120q88 0 88 91q0 97 -118 97h-70v150h70q108 0 108 85q0 81 -73 81q-69 0 -87 -99zM1049 1365h165
l-651 -1365h-161zM1446 448q147 -78 147 -209q0 -101 -80.5 -176t-241.5 -75q-158 0 -231 67.5t-73 162.5q0 119 150 186q-124 68 -124 188q0 96 73.5 167.5t221.5 71.5q147 0 214 -64t67 -149q0 -106 -123 -170zM1322 505q49 48 49 99q0 82 -80 82q-85 0 -85 -70
q0 -60 116 -111zM1238 343q-69 -44 -69 -108q0 -95 109 -95q49 0 75.5 22t26.5 55q0 64 -142 126z" />
    <glyph glyph-name="fiveeighths" unicode="&#x215d;" horiz-adv-x="1640" 
d="M112 1365h501l-23 -182h-319l-12 -154q61 66 155 66q102 0 172.5 -67.5t70.5 -199.5q0 -144 -86.5 -219t-223.5 -75q-125 0 -208.5 63t-96.5 173l206 31q14 -94 98 -94q92 0 92 112q0 109 -95 109q-65 0 -86 -63l-178 31zM1065 1365h165l-651 -1365h-161zM1457 448
q147 -78 147 -209q0 -101 -80.5 -176t-241.5 -75q-158 0 -231 67.5t-73 162.5q0 119 150 186q-124 68 -124 188q0 96 73.5 167.5t221.5 71.5q147 0 214 -64t67 -149q0 -106 -123 -170zM1333 505q49 48 49 99q0 82 -80 82q-85 0 -85 -70q0 -60 116 -111zM1249 343
q-69 -44 -69 -108q0 -95 109 -95q49 0 75.5 22t26.5 55q0 64 -142 126z" />
    <glyph glyph-name="seveneighths" unicode="&#x215e;" horiz-adv-x="1640" 
d="M89 1365h551v-154q-211 -243 -212 -665h-242q1 359 244 632l-358 1zM970 1365h165l-651 -1365h-161zM1364 448q147 -78 147 -209q0 -101 -80.5 -176t-241.5 -75q-158 0 -231 67.5t-73 162.5q0 119 150 186q-124 68 -124 188q0 96 73.5 167.5t221.5 71.5q147 0 214 -64
t67 -149q0 -106 -123 -170zM1240 505q49 48 49 99q0 82 -80 82q-85 0 -85 -70q0 -60 116 -111zM1156 343q-69 -44 -69 -108q0 -95 109 -95q49 0 75.5 22t26.5 55q0 64 -142 126z" />
    <glyph glyph-name="arrowleft" unicode="&#x2190;" horiz-adv-x="2048" 
d="M492 876h78q-82 -170 -197 -309h1595v-101h-1595q101 -102 197 -309h-78q-222 253 -413 341v45q176 71 413 333z" />
    <glyph glyph-name="arrowup" unicode="&#x2191;" horiz-adv-x="1024" 
d="M153 1049q262 236 333 414h46q86 -191 340 -414v-77q-207 95 -309 196v-1595h-101v1595q-139 -114 -309 -196v77z" />
    <glyph glyph-name="arrowright" unicode="&#x2192;" horiz-adv-x="2048" 
d="M1555 876q236 -262 413 -333v-45q-191 -88 -413 -341h-77q95 207 196 309h-1595v101h1595q-115 139 -196 309h77z" />
    <glyph glyph-name="arrowdown" unicode="&#x2193;" horiz-adv-x="1024" 
d="M153 -13v77q170 -82 309 -196v1595h101v-1595q102 100 309 196v-77q-254 -223 -340 -414h-46q-71 178 -333 414z" />
    <glyph glyph-name="arrowboth" unicode="&#x2194;" horiz-adv-x="2048" 
d="M1968 540v-45q-181 -79 -406 -337h-80q69 172 194 311h-1305q125 -139 194 -311h-80q-224 258 -406 337v45q182 79 406 338h80q-69 -172 -194 -311h1305q-125 139 -194 311h80q225 -259 406 -338z" />
    <glyph glyph-name="arrowupdn" unicode="&#x2195;" horiz-adv-x="1024" 
d="M489 1463h45q79 -182 337 -407v-80q-171 69 -311 195v-1306q140 126 311 194v-79q-258 -225 -337 -407h-45q-79 182 -337 407v79q171 -68 311 -194v1306q-140 -126 -311 -195v80q258 225 337 407z" />
    <glyph glyph-name="arrowupdnbse" unicode="&#x21a8;" horiz-adv-x="1024" 
d="M490 1463h45q79 -182 337 -407v-80q-171 69 -311 195v-1306q140 126 311 194v-79q-258 -225 -337 -407h-45q-78 181 -335 407v79q171 -69 309 -194v1306q-138 -126 -309 -195v80q257 226 335 407zM155 -522h717v-98h-717v98z" />
    <glyph glyph-name="orthogonal" unicode="&#x221f;" horiz-adv-x="2005" 
d="M362 1279h100v-1179h1181v-100h-1281v1279z" />
    <glyph glyph-name="intersection" unicode="&#x2229;" horiz-adv-x="1473" 
d="M350 0h-206v636q0 271 14.5 386t84 226t205 185.5t289.5 74.5t289 -75t203 -181t84 -222.5t16 -393.5v-636h-206v642q0 274 -21.5 386t-125 195t-239.5 83q-103 0 -194.5 -53t-132 -124.5t-50.5 -167t-10 -319.5v-642z" />
    <glyph glyph-name="equivalence" unicode="&#x2261;" 
d="M942 904h-837v216h837v-216zM942 569h-837v216h837v-216zM942 234h-837v216h837v-216z" />
    <glyph glyph-name="house" unicode="&#x2302;" horiz-adv-x="1229" 
d="M153 0v634l461 519l462 -519v-634h-923zM234 81h761v519l-381 427l-380 -427v-519z" />
    <glyph glyph-name="revlogicalnot" unicode="&#x2310;" horiz-adv-x="1024" 
d="M365 0h-297v595h887v-268h-590v-327z" />
    <glyph glyph-name="integraltp" unicode="&#x2320;" horiz-adv-x="1229" 
d="M687 -515h-145v1811q0 207 86 324t206 117q74 0 106 -34.5t32 -74.5q0 -41 -26.5 -66.5t-61.5 -25.5q-34 0 -55.5 13.5t-42.5 47.5q-24 37 -47 37q-29 0 -40.5 -24.5t-11.5 -153.5v-1971z" />
    <glyph glyph-name="integralbt" unicode="&#x2321;" horiz-adv-x="1229" 
d="M542 1737h145v-1811q0 -207 -86 -324t-206 -117q-74 0 -106 34.5t-32 74.5q0 41 26.5 66.5t60.5 25.5q35 0 56.5 -14t42.5 -47q24 -37 47 -37q29 0 40.5 24t11.5 154v1971z" />
    <glyph glyph-name="SF100000" unicode="&#x2500;" horiz-adv-x="1460" 
d="M1478 534h-1496v175h1496v-175z" />
    <glyph glyph-name="SF110000" unicode="&#x2502;" horiz-adv-x="1460" 
d="M643 -621v2485h175v-2485h-175z" />
    <glyph glyph-name="SF010000" unicode="&#x250c;" horiz-adv-x="1460" 
d="M1479 709v-175h-661v-1155h-175v1330h836z" />
    <glyph glyph-name="SF030000" unicode="&#x2510;" horiz-adv-x="1460" 
d="M642 534h-660v175h835v-1330h-175v1155z" />
    <glyph glyph-name="SF020000" unicode="&#x2514;" horiz-adv-x="1460" 
d="M643 534v1330h175v-1155h661v-175h-836z" />
    <glyph glyph-name="SF040000" unicode="&#x2518;" horiz-adv-x="1460" 
d="M817 534h-835v175h660v1155h175v-1330z" />
    <glyph glyph-name="SF080000" unicode="&#x251c;" horiz-adv-x="1460" 
d="M643 -621v2485h175v-1155h661v-175h-661v-1155h-175z" />
    <glyph glyph-name="SF090000" unicode="&#x2524;" horiz-adv-x="1460" 
d="M642 -621v1155h-660v175h660v1155h175v-2485h-175z" />
    <glyph glyph-name="SF060000" unicode="&#x252c;" horiz-adv-x="1460" 
d="M642 534h-660v175h1496v-175h-661v-1155h-175v1155z" />
    <glyph glyph-name="SF070000" unicode="&#x2534;" horiz-adv-x="1460" 
d="M1478 534h-1496v175h660v1155h175v-1155h661v-175z" />
    <glyph glyph-name="SF050000" unicode="&#x253c;" horiz-adv-x="1460" 
d="M642 534h-660v175h660v1155h175v-1155h661v-175h-661v-1155h-175v1155z" />
    <glyph glyph-name="SF430000" unicode="&#x2550;" horiz-adv-x="1460" 
d="M1478 724h-1496v175h1496v-175zM1478 344h-1496v175h1496v-175z" />
    <glyph glyph-name="SF240000" unicode="&#x2551;" horiz-adv-x="1460" 
d="M833 -621v2485h175v-2485h-175zM453 -621v2485h175v-2485h-175z" />
    <glyph glyph-name="SF510000" unicode="&#x2552;" horiz-adv-x="1460" 
d="M643 -621v1520h836v-175h-661v-205h661v-175h-661v-965h-175z" />
    <glyph glyph-name="SF520000" unicode="&#x2553;" horiz-adv-x="1460" 
d="M453 -621v1330h1026v-175h-471v-1155h-175v1140h-205v-1140h-175z" />
    <glyph glyph-name="SF390000" unicode="&#x2554;" horiz-adv-x="1460" 
d="M628 -621h-175v1520h1025v-175h-850v-1345zM1008 344v-965h-175v1140h645v-175h-470z" />
    <glyph glyph-name="SF220000" unicode="&#x2555;" horiz-adv-x="1460" 
d="M642 344h-660v175h660v205h-660v175h835v-1520h-175v965z" />
    <glyph glyph-name="SF210000" unicode="&#x2556;" horiz-adv-x="1460" 
d="M452 -621v1155h-470v175h1025v-1330h-175v1155h-205v-1155h-175z" />
    <glyph glyph-name="SF250000" unicode="&#x2557;" horiz-adv-x="1460" 
d="M832 -621v1345h-850v175h1025v-1520h-175zM452 344h-470v175h645v-1140h-175v965z" />
    <glyph glyph-name="SF500000" unicode="&#x2558;" horiz-adv-x="1460" 
d="M643 344v1520h175v-965h661v-175h-661v-205h661v-175h-836z" />
    <glyph glyph-name="SF490000" unicode="&#x2559;" horiz-adv-x="1460" 
d="M1478 534h-1025v1330h175v-1155h205v1155h175v-1155h470v-175z" />
    <glyph glyph-name="SF380000" unicode="&#x255a;" horiz-adv-x="1460" 
d="M628 1864v-1345h850v-175h-1025v1520h175zM1008 899h470v-175h-645v1140h175v-965z" />
    <glyph glyph-name="SF280000" unicode="&#x255b;" horiz-adv-x="1460" 
d="M817 344h-835v175h660v205h-660v175h660v965h175v-1520z" />
    <glyph glyph-name="SF270000" unicode="&#x255c;" horiz-adv-x="1460" 
d="M1007 534h-1025v175h470v1155h175v-1155h205v1155h175v-1330z" />
    <glyph glyph-name="SF260000" unicode="&#x255d;" horiz-adv-x="1460" 
d="M832 1864h175v-1520h-1025v175h850v1345zM452 899v965h175v-1140h-645v175h470z" />
    <glyph glyph-name="SF360000" unicode="&#x255e;" horiz-adv-x="1460" 
d="M643 -621v2485h175v-965h661v-175h-661v-205h661v-175h-661v-965h-175z" />
    <glyph glyph-name="SF370000" unicode="&#x255f;" horiz-adv-x="1460" 
d="M833 -621v2485h175v-1155h471v-175h-471v-1155h-175zM453 -621v2485h175v-2485h-175z" />
    <glyph glyph-name="SF420000" unicode="&#x2560;" horiz-adv-x="1460" 
d="M453 -621v2485h175v-2485h-175zM833 724v1140h175v-965h471v-175h-646zM833 -621v1140h646v-175h-471v-965h-175z" />
    <glyph glyph-name="SF190000" unicode="&#x2561;" horiz-adv-x="1460" 
d="M642 344h-660v175h660v205h-660v175h660v965h175v-2485h-175v965z" />
    <glyph glyph-name="SF200000" unicode="&#x2562;" horiz-adv-x="1460" 
d="M452 -621v1155h-470v175h470v1155h175v-2485h-175zM832 -621v2485h175v-2485h-175z" />
    <glyph glyph-name="SF230000" unicode="&#x2563;" horiz-adv-x="1460" 
d="M832 -621v2485h175v-2485h-175zM627 1864v-1140h-645v175h470v965h175zM452 344h-470v175h645v-1140h-175v965z" />
    <glyph glyph-name="SF470000" unicode="&#x2564;" horiz-adv-x="1460" 
d="M1478 724h-1496v175h1496v-175zM642 344h-660v175h1496v-175h-661v-965h-175v965z" />
    <glyph glyph-name="SF480000" unicode="&#x2565;" horiz-adv-x="1460" 
d="M452 -621v1155h-470v175h1496v-175h-471v-1155h-175v1140h-205v-1140h-175z" />
    <glyph glyph-name="SF410000" unicode="&#x2566;" horiz-adv-x="1460" 
d="M1478 724h-1496v175h1496v-175zM452 344h-470v175h645v-1140h-175v965zM832 -621v1140h646v-175h-471v-965h-175z" />
    <glyph glyph-name="SF450000" unicode="&#x2567;" horiz-adv-x="1460" 
d="M1478 724h-1496v175h660v965h175v-965h661v-175zM1478 344h-1496v175h1496v-175z" />
    <glyph glyph-name="SF460000" unicode="&#x2568;" horiz-adv-x="1460" 
d="M1478 534h-1496v175h470v1155h175v-1155h205v1155h175v-1155h471v-175z" />
    <glyph glyph-name="SF400000" unicode="&#x2569;" horiz-adv-x="1460" 
d="M627 724h-645v175h470v965h175v-1140zM1478 724h-646v1140h175v-965h471v-175zM1478 344h-1496v175h1496v-175z" />
    <glyph glyph-name="SF540000" unicode="&#x256a;" horiz-adv-x="1460" 
d="M642 344h-660v175h660v205h-660v175h660v965h175v-965h661v-175h-661v-205h661v-175h-661v-965h-175v965z" />
    <glyph glyph-name="SF530000" unicode="&#x256b;" horiz-adv-x="1460" 
d="M452 -621v1155h-470v175h470v1155h175v-1155h205v1155h175v-1155h471v-175h-471v-1155h-175v1155h-205v-1155h-175z" />
    <glyph glyph-name="SF440000" unicode="&#x256c;" horiz-adv-x="1460" 
d="M1008 899h470v-175h-645v1140h175v-965zM452 899v965h175v-1140h-645v175h470zM452 344h-470v175h645v-1140h-175v965zM1008 344v-965h-175v1140h645v-175h-470z" />
    <glyph glyph-name="upblock" unicode="&#x2580;" horiz-adv-x="1460" 
d="M1478 621h-1496v1243h1496v-1243z" />
    <glyph glyph-name="dnblock" unicode="&#x2584;" horiz-adv-x="1460" 
d="M1478 -621h-1496v1242h1496v-1242z" />
    <glyph glyph-name="block" unicode="&#x2588;" horiz-adv-x="1460" 
d="M-18 -621v2485h1496v-2485h-1496z" />
    <glyph glyph-name="lfblock" unicode="&#x258c;" horiz-adv-x="1460" 
d="M-18 -621v2485h748v-2485h-748z" />
    <glyph glyph-name="rtblock" unicode="&#x2590;" horiz-adv-x="1460" 
d="M730 -621v2485h748v-2485h-748z" />
    <glyph glyph-name="ltshade" unicode="&#x2591;" horiz-adv-x="1460" 
d="M107 1864h125v-125h-125v125zM605 1864h125v-125h-125v125zM1104 1864h125v-125h-125v125zM356 1615h125v-125h-125v125zM855 1615h124v-125h-124v125zM1353 1615h125v-125h-125v125zM1104 1366h125v-125h-125v125zM605 1366h125v-125h-125v125zM107 1366h125v-125h-125
v125zM1353 1116h125v-124h-125v124zM855 1116h124v-124h-124v124zM356 1116h125v-124h-125v124zM107 867h125v-125h-125v125zM605 867h125v-125h-125v125zM1104 867h125v-125h-125v125zM1353 618h125v-125h-125v125zM855 618h124v-125h-124v125zM356 618h125v-125h-125v125z
M107 369h125v-125h-125v125zM605 369h125v-125h-125v125zM1104 369h125v-125h-125v125zM356 119h125v-124h-125v124zM855 119h124v-124h-124v124zM1353 119h125v-124h-125v124zM1104 -130h125v-125h-125v125zM605 -130h125v-125h-125v125zM107 -130h125v-125h-125v125z
M356 -379h125v-125h-125v125zM855 -379h124v-125h-124v125zM1353 -379h125v-125h-125v125z" />
    <glyph glyph-name="shade" unicode="&#x2592;" horiz-adv-x="1460" 
d="M107 1864h124v-125h-124v125zM356 1864h124v-125h-124v125zM605 1864h125v-125h-125v125zM854 1864h125v-125h-125v125zM1104 1864h124v-125h-124v125zM1353 1864h124v-125h-124v125zM-18 1615h125v-125h-125v125zM231 1615h125v-125h-125v125zM480 1615h125v-125h-125
v125zM730 1615h124v-125h-124v125zM979 1615h125v-125h-125v125zM1228 1615h125v-125h-125v125zM107 1366h124v-125h-124v125zM356 1366h124v-125h-124v125zM605 1366h125v-125h-125v125zM854 1366h125v-125h-125v125zM1104 1366h124v-125h-124v125zM1353 1366h124v-125
h-124v125zM-18 1116h125v-124h-125v124zM231 1116h125v-124h-125v124zM480 1116h125v-124h-125v124zM730 1116h124v-124h-124v124zM979 1116h125v-124h-125v124zM1228 1116h125v-124h-125v124zM107 867h124v-125h-124v125zM356 867h124v-125h-124v125zM605 867h125v-125
h-125v125zM854 867h125v-125h-125v125zM1104 867h124v-125h-124v125zM1353 867h124v-125h-124v125zM-18 618h125v-125h-125v125zM480 618h125v-125h-125v125zM730 618h124v-125h-124v125zM979 618h125v-125h-125v125zM1228 618h125v-125h-125v125zM231 618h125v-125h-125
v125zM1353 369h124v-125h-124v125zM1104 369h124v-125h-124v125zM854 369h125v-125h-125v125zM605 369h125v-125h-125v125zM356 369h124v-125h-124v125zM107 369h124v-125h-124v125zM-18 119h125v-124h-125v124zM231 119h125v-124h-125v124zM480 119h125v-124h-125v124z
M730 119h124v-124h-124v124zM979 119h125v-124h-125v124zM1228 119h125v-124h-125v124zM1353 -130h124v-125h-124v125zM1104 -130h124v-125h-124v125zM854 -130h125v-125h-125v125zM605 -130h125v-125h-125v125zM356 -130h124v-125h-124v125zM107 -130h124v-125h-124v125z
M-18 -379h125v-125h-125v125zM231 -379h125v-125h-125v125zM480 -379h125v-125h-125v125zM730 -379h124v-125h-124v125zM979 -379h125v-125h-125v125zM1228 -379h125v-125h-125v125z" />
    <glyph glyph-name="dkshade" unicode="&#x2593;" horiz-adv-x="1495" 
d="M1495 1490v-374h-124v-124h124v-374h-124v-125h124v-374h-124v-124h124v-374h-124v-125h124v-124h-1495v373h125v125h-125v374h125v125h-125v373h125v125h-125v374h125v125h-125v373h125v125h124v-125h125v125h124v-125h125v125h125v-125h124v125h125v-125h125v125h124
v-125h125v125h124v-249h-124v-125h124zM125 1615v-125h124v125h-124zM374 1615v-125h124v125h-124zM623 1615v-125h125v125h-125zM872 1615v-125h125v125h-125zM1122 1615v-125h124v125h-124zM1371 1366h-125v-125h125v125zM1122 1366h-125v-125h125v125zM872 1366h-124
v-125h124v125zM623 1366h-125v-125h125v125zM374 1366h-125v-125h125v125zM125 1116v-124h124v124h-124zM374 1116v-124h124v124h-124zM623 1116v-124h125v124h-125zM872 1116v-124h125v124h-125zM1122 1116v-124h124v124h-124zM374 867h-125v-125h125v125zM498 867v-125
h125v125h-125zM748 867v-125h124v125h-124zM997 867v-125h125v125h-125zM1246 867v-125h125v125h-125zM125 618v-125h124v125h-124zM623 618v-125h125v125h-125zM498 493v125h-124v-125h124zM872 618v-125h125v125h-125zM1122 618v-125h124v125h-124zM1371 244v125h-125
v-125h125zM1122 244v125h-125v-125h125zM872 244v125h-124v-125h124zM623 244v125h-125v-125h125zM374 244v125h-125v-125h125zM125 119v-124h124v124h-124zM374 119v-124h124v124h-124zM623 119v-124h125v124h-125zM872 119v-124h125v124h-125zM1122 119v-124h124v124h-124
zM1371 -255v125h-125v-125h125zM1122 -255v125h-125v-125h125zM872 -255v125h-124v-125h124zM623 -255v125h-125v-125h125zM374 -255v125h-125v-125h125zM125 -379v-125h124v125h-124zM374 -379v-125h124v125h-124zM623 -379v-125h125v125h-125zM872 -379v-125h125v125h-125
zM1122 -379v-125h124v125h-124z" />
    <glyph glyph-name="filledbox" unicode="&#x25a0;" horiz-adv-x="1237" 
d="M146 944h944v-944h-944v944z" />
    <glyph glyph-name="H22073" unicode="&#x25a1;" horiz-adv-x="1237" 
d="M146 944h944v-944h-944v944zM222 868v-792h792v792h-792z" />
    <glyph glyph-name="H18543" unicode="&#x25aa;" horiz-adv-x="727" 
d="M635 948v-543h-543v543h543z" />
    <glyph glyph-name="H18551" unicode="&#x25ab;" horiz-adv-x="727" 
d="M635 948v-543h-543v543h543zM559 872h-391v-391h391v391z" />
    <glyph glyph-name="filledrect" unicode="&#x25ac;" horiz-adv-x="2048" 
d="M0 703h2047v-386h-2047v386z" />
    <glyph glyph-name="triagup" unicode="&#x25b2;" horiz-adv-x="2027" 
d="M304 0l710 1419l710 -1419h-1420z" />
    <glyph glyph-name="triagrt" unicode="&#x25ba;" horiz-adv-x="2027" 
d="M288 1417l1451 -724l-1451 -724v1448z" />
    <glyph glyph-name="triagdn" unicode="&#x25bc;" horiz-adv-x="2027" 
d="M1724 1388l-710 -1419l-710 1419h1420z" />
    <glyph glyph-name="triaglf" unicode="&#x25c4;" horiz-adv-x="2027" 
d="M1739 1417v-1448l-1451 724z" />
    <glyph glyph-name="circle" unicode="&#x25cb;" horiz-adv-x="1229" 
d="M1055 578q0 -182 -129.5 -311.5t-310.5 -129.5q-182 0 -311.5 129.5t-129.5 311.5t129.5 311t310.5 129q183 0 312 -129t129 -311zM979 578q0 151 -106.5 257.5t-257.5 106.5t-258 -107.5t-107 -256.5t107 -257t258 -108q150 0 257 107.5t107 257.5z" />
    <glyph glyph-name="H18533" unicode="&#x25cf;" horiz-adv-x="1237" 
d="M1059 578q0 -182 -129.5 -311.5t-310.5 -129.5q-183 0 -312 129t-129 312q0 182 129.5 311t311.5 129q181 0 310.5 -129.5t129.5 -310.5z" />
    <glyph glyph-name="invbullet" unicode="&#x25d8;" horiz-adv-x="1229" 
d="M124 0v980h980v-980h-980zM816 490q0 83 -59 142.5t-143 59.5q-82 0 -142 -59t-60 -143q0 -83 59.5 -142.5t142.5 -59.5q84 0 143 60t59 142z" />
    <glyph glyph-name="invcircle" unicode="&#x25d9;" horiz-adv-x="1229" 
d="M38 0v1155h1155v-1155h-1155zM1056 577q0 181 -129.5 311t-310.5 130q-183 0 -312 -130t-129 -311q0 -182 128.5 -311t312.5 -129q181 0 310.5 129.5t129.5 310.5zM980 577q0 -150 -107 -257t-257 -107q-151 0 -258 107t-107 257q0 151 107.5 258t257.5 107t257 -106.5
t107 -258.5z" />
    <glyph glyph-name="openbullet" unicode="&#x25e6;" horiz-adv-x="727" 
d="M649 676q0 -118 -83.5 -202t-201.5 -84t-202 84t-84 202t84 202t202 84t201.5 -84t83.5 -202zM574 676q0 87 -62 148.5t-148 61.5t-148 -61.5t-62 -148.5q0 -86 61.5 -148t148.5 -62t148.5 62t61.5 148z" />
    <glyph glyph-name="smileface" unicode="&#x263a;" horiz-adv-x="2091" 
d="M1683 518q0 -262 -187 -449.5t-450 -187.5q-264 0 -451 186.5t-187 450.5q0 263 187.5 450.5t450.5 187.5t450 -187.5t187 -450.5zM1591 518q0 225 -160.5 385t-384.5 160q-225 0 -385 -160t-160 -385q0 -224 160 -384t385 -160q224 0 384.5 160t160.5 384zM882 650
q0 -33 -23.5 -57t-57.5 -24q-33 0 -57 24t-24 57q0 34 24 57.5t57 23.5q34 0 57.5 -23.5t23.5 -57.5zM1371 650q0 -33 -24 -57t-57 -24t-57 24t-24 57q0 34 24 57.5t57 23.5t57 -23.5t24 -57.5zM752 313l62 36q79 -144 232 -144t231 144l63 -36q-104 -195 -294 -195
q-191 0 -294 195z" />
    <glyph glyph-name="invsmileface" unicode="&#x263b;" horiz-adv-x="2155" 
d="M1715 518q0 -262 -187 -449.5t-450 -187.5q-264 0 -451 186.5t-187 450.5q0 263 187.5 450.5t450.5 187.5t450 -187.5t187 -450.5zM914 650q0 34 -23.5 57.5t-57.5 23.5q-33 0 -57 -23.5t-24 -57.5q0 -33 24 -57t57 -24q34 0 57.5 24t23.5 57zM1403 650q0 34 -24 57.5
t-57 23.5t-57 -23.5t-24 -57.5q0 -33 24 -57t57 -24t57 24t24 57zM784 313q103 -195 294 -195q190 0 294 195l-63 36q-78 -144 -231 -144t-232 144z" />
    <glyph glyph-name="sun" unicode="&#x263c;" horiz-adv-x="1878" 
d="M902 1621h76v-337q191 -7 350 -140l289 283l52 -53l-286 -286q140 -175 143 -358h336v-69h-336q-14 -190 -143 -348l286 -289l-57 -51l-284 280q-167 -125 -350 -139v-337h-76v337q-203 25 -345 139l-296 -280l-49 51l284 289q-125 153 -144 352h-336v69h336
q14 197 144 349l-284 287l49 57l291 -283q180 130 350 140v337zM1450 699q0 212 -150.5 362t-362.5 150q-211 0 -361.5 -150.5t-150.5 -361.5q0 -212 150 -362.5t362 -150.5q211 0 362 151t151 362z" />
    <glyph glyph-name="female" unicode="&#x2640;" horiz-adv-x="1131" 
d="M591 481v-365h417v-54h-417v-399h-54v399h-418v54h418v365q-83 0 -192 53.5t-182.5 168.5t-73.5 253q0 196 139.5 336t336.5 140q196 0 336 -140t140 -336q0 -185 -127.5 -323.5t-322.5 -151.5zM992 955q0 176 -125 301t-302 125q-176 0 -301.5 -125.5t-125.5 -300.5
q0 -176 125.5 -301.5t301.5 -125.5t301.5 125.5t125.5 301.5z" />
    <glyph glyph-name="male" unicode="&#x2642;" horiz-adv-x="1366" 
d="M1107 1372l29 -10q35 -359 161 -615l-25 -16q-149 188 -222 415l-295 -635q110 -42 201 -162t91 -268q0 -188 -133 -304t-326 -116q-203 0 -344.5 134t-141.5 323q0 188 130.5 316t306.5 128q76 0 170 -33l293 636q-214 -90 -457 -104v27q165 51 255.5 97.5t306.5 186.5z
M531 516q-158 0 -272 -113.5t-114 -268.5q0 -172 116.5 -282.5t274.5 -110.5q162 0 273.5 113.5t111.5 267.5q0 164 -117 279t-273 115z" />
    <glyph glyph-name="spade" unicode="&#x2660;" horiz-adv-x="1092" 
d="M547 1231q18 -82 64.5 -169t203.5 -230q122 -111 169.5 -181t47.5 -152q0 -96 -64.5 -160t-155.5 -64q-154 0 -254 190q0 -230 101 -325.5t277 -102.5l7 -37h-793l8 37q186 0 284.5 106.5t98.5 280.5v41q-90 -190 -262 -190q-92 0 -155.5 66t-63.5 155q0 150 188 305
q262 215 299 430z" />
    <glyph glyph-name="club" unicode="&#x2663;" horiz-adv-x="1354" 
d="M1103 0h-848l8 34q153 33 219.5 68.5t125 138.5t58.5 228l-1 42q-55 -117 -143.5 -177.5t-183.5 -60.5q-115 0 -196.5 81t-81.5 199q0 111 72.5 193t169.5 82q64 0 163 -51q-67 106 -67 182q0 113 79 192.5t197 79.5t198.5 -79.5t80.5 -187.5q0 -94 -69 -187
q106 53 162 53q105 0 176 -82t71 -191q0 -120 -81 -201.5t-193 -81.5q-78 0 -167 49.5t-165 187.5q4 -157 48 -250.5t122.5 -144.5t237.5 -82z" />
    <glyph glyph-name="heart" unicode="&#x2665;" horiz-adv-x="1210" 
d="M607 -24q-32 122 -92.5 228.5t-275.5 389.5q-101 133 -140 212t-39 163q0 110 74 185.5t183 75.5q206 0 290 -251q34 129 113.5 190.5t171.5 61.5q109 0 183.5 -75t74.5 -177q0 -84 -40 -179t-174 -264q-284 -360 -329 -560z" />
    <glyph glyph-name="diamond" unicode="&#x2666;" horiz-adv-x="1038" 
d="M517 1231q193 -323 461 -627q-52 -52 -214 -265t-247 -363q-101 190 -457 628q324 383 457 627z" />
    <glyph glyph-name="musicalnote" unicode="&#x266a;" horiz-adv-x="1579" 
d="M926 1535h60q164 -100 366 -309t202 -285q0 -16 -20 -44.5t-39 -28.5q-28 0 -63 44q-55 66 -195 190t-242 188l26 -1374q0 -122 -71.5 -193t-217 -131.5t-291.5 -60.5q-190 0 -302.5 97t-112.5 230q0 159 162.5 279t372.5 120q192 0 396 -94z" />
    <glyph glyph-name="musicalnotedbl" unicode="&#x266b;" horiz-adv-x="2048" 
d="M832 1195l934 291v-1301q0 -148 -37.5 -221t-125 -121t-200.5 -48q-145 0 -212.5 77.5t-67.5 185.5q0 117 90 202t234 85q84 0 200 -50v850l-699 -217v-981q0 -123 -29.5 -203t-121 -136.5t-216.5 -56.5q-124 0 -200.5 71t-76.5 190q0 129 93 210.5t230 81.5
q95 0 205 -54v1145z" />
    <glyph glyph-name="uniF001" unicode="&#xf001;" horiz-adv-x="1081" 
d="M422 1010h178v-222h-178v-788h-270v788h-115v222h115q3 158 21.5 222.5t89 125.5t219.5 61q57 0 113 -8v-220q-29 2 -47 2q-72 0 -95 -24.5t-27 -51.5t-4 -107zM980 1093h-286v279h286v-279zM696 1010h282v-1010h-282v1010z" />
    <glyph glyph-name="uniF002" unicode="&#xf002;" horiz-adv-x="1081" 
d="M422 1010h178v-222h-178v-788h-270v788h-115v222h115q3 158 21.5 222.5t89 125.5t219.5 61q57 0 113 -8v-220q-29 2 -47 2q-72 0 -95 -24.5t-27 -51.5t-4 -107zM696 1365h282v-1365h-282v1365z" />
    <glyph glyph-name="uniF003" unicode="&#xf003;" horiz-adv-x="698" 
d="M332 1377h234v-479h99v-167h-99v-185h-224v185h-314v155zM363 876v313l-183 -313h183z" />
    <glyph glyph-name="uniF004" unicode="&#xf004;" horiz-adv-x="942" 
d="M453 1365h209l-160 -400h-105z" />
    <glyph glyph-name="uniF005" unicode="&#xf005;" horiz-adv-x="942" 
d="M381 -109h209l-160 -381h-105z" />
    <glyph glyph-name="fivesuperior" horiz-adv-x="698" 
d="M112 1365h501l-23 -182h-319l-12 -154q61 66 155 66q102 0 172.5 -67.5t70.5 -199.5q0 -144 -86.5 -219t-223.5 -75q-125 0 -208.5 63t-96.5 173l206 31q14 -94 98 -94q92 0 92 112q0 109 -95 109q-65 0 -86 -63l-178 31z" />
    <glyph glyph-name="sevensuperior" horiz-adv-x="698" 
d="M89 1365h551v-154q-211 -243 -212 -665h-242q1 359 244 632l-358 1z" />
    <glyph glyph-name="eightsuperior" horiz-adv-x="698" 
d="M515 994q147 -78 147 -209q0 -101 -80.5 -176t-241.5 -75q-158 0 -231 67.5t-73 162.5q0 119 150 186q-124 68 -124 188q0 96 73.5 167.5t221.5 71.5q147 0 214 -64t67 -149q0 -106 -123 -170zM391 1051q49 48 49 99q0 82 -80 82q-85 0 -85 -70q0 -60 116 -111zM307 889
q-69 -44 -69 -108q0 -95 109 -95q49 0 75.5 22t26.5 55q0 64 -142 126z" />
    <glyph glyph-name="currency" unicode="&#xa4;" 
d="M693 1016l132 132l143 -143l-132 -132q43 -80 43 -170q0 -85 -41 -165l133 -133l-150 -150l-133 133q-82 -41 -165 -41q-88 0 -169 43l-133 -132l-143 143l132 133q-43 81 -43 169q0 87 41 165l-133 133l150 150l133 -133q78 41 165 41q90 0 170 -43zM364 703
q0 -66 46.5 -112.5t112.5 -46.5t112.5 47t46.5 112t-46.5 112t-112.5 47q-65 0 -112 -46.5t-47 -112.5z" />
    </font>
</defs>
</svg>
