<?xml version="1.0" encoding="UTF-8" standalone="no"?>
<!DOCTYPE svg PUBLIC "-//W3C//DTD SVG 1.1//EN" "http://www.w3.org/Graphics/SVG/1.1/DTD/svg11.dtd">
<svg xmlns="http://www.w3.org/2000/svg">
<metadata>
This is a custom SVG webfont generated by Font Squirrel.
Copyright   : Copyright c 2010 by Ryoichi Tsunekawa All rights reserved
Designer    : Ryoichi Tsunekawa
Foundry     : Ryoichi Tsunekawa
</metadata>
<defs>
<font id="webfont4Bjy2lJe" horiz-adv-x="811">
<font-face units-per-em="2048" ascent="1638" descent="-410"/>
<missing-glyph horiz-adv-x="317"/>
<glyph unicode=" " horiz-adv-x="317"/>
<glyph unicode="	" horiz-adv-x="317"/>
<glyph unicode=" " horiz-adv-x="317"/>
<glyph unicode="!" horiz-adv-x="389" d="M279 317h-168l-29 519v598h225v-598zM86 217h217v-217h-217v217z"/>
<glyph unicode="&quot;" horiz-adv-x="665" d="M113 1012l-31 422h217l-33 -422h-153zM397 1012l-30 422h217l-33 -422h-154z"/>
<glyph unicode="#" horiz-adv-x="839" d="M406 0l43 410h-134l-43 -410h-184l43 410h-100l16 159h100l39 375h-102l16 160h103l35 330h184l-35 -330h133l35 330h184l-34 -330h104l-16 -160h-105l-39 -375h105l-17 -159h-104l-43 -410h-184zM371 944l-39 -375h133l39 375h-133z"/>
<glyph unicode="$" d="M76 1069q0 297 237 350v107h185v-107q242 -49 241 -350v-45h-213v59q0 141 -112.5 141.5t-112.5 -141.5q0 -80 45 -147q46 -66 110 -117l130 -107q66 -56 110.5 -145.5t44.5 -201.5q0 -147 -62.5 -237.5t-180.5 -115.5v-104h-185v104q-244 49 -243 353v98h213v-113 q0 -139 116.5 -139t116.5 139q0 68 -32.5 127.5t-82 99t-105.5 89.5l-106 100q-50 49 -82 128t-32 175z"/>
<glyph unicode="%" horiz-adv-x="1284" d="M213 1225v-492q0 -90 73.5 -90t73.5 90v492q0 90 -73.5 90t-73.5 -90zM70 743v471q0 111 55 170.5t161.5 59.5t162 -59.5t55.5 -170.5v-471q0 -111 -55.5 -170t-162 -59t-161.5 59t-55 170zM287 0l565 1434h133l-565 -1434h-133zM924 700v-491q0 -90 73.5 -90t73.5 90 v491q0 90 -73.5 90t-73.5 -90zM780 219v471q0 111 55.5 170.5t162 59.5t161.5 -59.5t55 -170.5v-471q0 -111 -55 -170t-161.5 -59t-162 59t-55.5 170z"/>
<glyph unicode="&amp;" horiz-adv-x="847" d="M84 457q0 231 156 301q-156 66 -156 295v26q0 354 336 355h258v-205h-254q-115 0 -115 -139v-89q0 -82 34 -116.5t101 -34.5h99v160h225v-160h59v-205h-59v-471q0 -117 25 -174h-230q-16 45 -20 113q-59 -129 -209 -129q-250 0 -250 327v146zM309 330q0 -141 117 -142 q111 0 117 125v332h-86q-78 0 -113 -42t-35 -140v-133z"/>
<glyph unicode="'" horiz-adv-x="368" d="M106 1012l-30 422h217l-33 -422h-154z"/>
<glyph unicode="(" horiz-adv-x="514" d="M412 1434h69v-185h-55q-55 0 -79.5 -27.5t-24.5 -101.5v-807q0 -74 24.5 -101.5t79.5 -27.5h55v-184h-69q-170 0 -243 71.5t-73 241.5v807q0 170 73 242t243 72z"/>
<glyph unicode=")" horiz-adv-x="514" d="M33 1434h69q170 0 243 -72t73 -242v-807q0 -170 -73 -241.5t-243 -71.5h-69v184h55q55 0 80 28t25 101v807q0 74 -25 101.5t-80 27.5h-55v185z"/>
<glyph unicode="*" d="M61 1249l306 -153l-54 338h185l-54 -338l306 153l57 -174l-336 -57l240 -240l-148 -108l-157 303l-158 -303l-148 108l240 240l-336 57z"/>
<glyph unicode="+" d="M485 516h254v-160h-667v160h254v164h-254v160h254v233h159v-233h254v-160h-254v-164z"/>
<glyph unicode="," horiz-adv-x="380" d="M168 0h-86v217h217v-194l-98 -228h-92z"/>
<glyph unicode="-" horiz-adv-x="552" d="M72 614v205h409v-205h-409z"/>
<glyph unicode="." horiz-adv-x="380" d="M82 217h217v-217h-217v217z"/>
<glyph unicode="/" horiz-adv-x="780" d="M10 0l565 1434h195l-565 -1434h-195z"/>
<glyph unicode="0" d="M289 1104v-774q0 -141 116.5 -141.5t116.5 141.5v774q0 141 -116.5 141t-116.5 -141zM63 344v746q0 172 88.5 266t254 94t254 -94t88.5 -266v-746q0 -172 -88.5 -266t-254 -94t-254 94t-88.5 266z"/>
<glyph unicode="1" d="M221 1094v159q82 0 134.5 28t71.5 60.5t42 92.5h152v-1434h-226v1094h-174z"/>
<glyph unicode="2" d="M528 1081q0 92 -29.5 128t-86.5 36q-117 0 -117 -141v-154h-213v140q0 174 86 267t250 93t250 -93t86 -267q0 -131 -50.5 -247t-120 -198t-137 -153.5t-109.5 -144.5t-30 -142h426v-205h-651v176q0 117 46 214t112 170l130 144q66 70 112 166t46 211z"/>
<glyph unicode="3" d="M516 1001v80q0 92 -29.5 128t-87.5 36q-117 0 -116 -141v-92h-213v78q0 174 86 267t249.5 93t249.5 -93t86 -267v-37q0 -229 -157 -295q158 -70 157 -301v-113q0 -174 -86 -267t-249.5 -93t-249.5 93t-86 267v119h213v-133q0 -141 116 -142q57 0 87 36t30 126v113 q0 98 -35 140t-112 42h-76v205h88q68 0 101.5 34.5t33.5 116.5z"/>
<glyph unicode="4" d="M29 260v205l409 969h246v-969h107v-205h-107v-260h-225v260h-430zM236 465h223v530z"/>
<glyph unicode="5" d="M72 463h213v-133q0 -139 116.5 -139.5t116.5 139.5v315q0 141 -116.5 141t-116.5 -141v-43h-213l41 832h594v-205h-392l-18 -342q63 104 197 104q250 0 249 -327v-320q0 -174 -86 -267t-249.5 -93t-249.5 93t-86 267v119z"/>
<glyph unicode="6" d="M68 344v733q0 373 344 373q164 0 250 -93t86 -267v-37h-213v51q0 141 -117 141q-63 0 -94 -39t-31 -137v-262q59 127 209 127q250 0 250 -328v-262q0 -172 -88.5 -266t-254 -94t-253.5 94t-88 266zM409.5 729q-116.5 0 -116.5 -141v-258q0 -139 116.5 -139.5t116.5 139.5 v258q0 141 -116.5 141z"/>
<glyph unicode="7" d="M68 1434h675v-197l-331 -1237h-226l330 1229h-448v205z"/>
<glyph unicode="8" d="M758 344q0 -172 -91.5 -266t-261 -94t-261 94t-91.5 266v113q0 221 140 299q-139 76 -140 288v46q0 172 91.5 266t261 94t261 -94t91.5 -266v-46q0 -211 -140 -288q139 -78 140 -299v-113zM279 350q0 -162 127 -162q125 0 126 162v133q0 162 -126.5 162t-126.5 -162v-133 zM279 1081v-80q0 -152 126.5 -151.5t126.5 151.5v80q0 164 -126.5 164t-126.5 -164z"/>
<glyph unicode="9" d="M743 1090v-734q0 -373 -344 -372q-164 0 -250 93t-86 267v37h213v-51q0 -141 117 -142q63 0 94 39t31 138v262q-59 -127 -209 -127q-250 0 -250 327v263q0 172 88.5 266t254 94t253.5 -94t88 -266zM401.5 705q116.5 0 116.5 141v258q0 139 -116.5 139t-116.5 -139v-258 q0 -141 116.5 -141z"/>
<glyph unicode=":" horiz-adv-x="380" d="M82 217h217v-217h-217v217zM82 997h217v-217h-217v217z"/>
<glyph unicode=";" horiz-adv-x="380" d="M168 0h-86v217h217v-194l-98 -228h-92zM82 997h217v-217h-217v217z"/>
<glyph unicode="&lt;" d="M729 391l-668 246v160l668 245v-161l-459 -164l459 -164v-162z"/>
<glyph unicode="=" d="M72 631h667v-160h-667v160zM72 963h667v-160h-667v160z"/>
<glyph unicode="&gt;" d="M750 637l-668 -246v162l459 164l-459 164v161l668 -245v-160z"/>
<glyph unicode="?" horiz-adv-x="737" d="M446 317h-200q-12 37 -13 89q0 104 39 191t84 141.5t84 150.5t39 215q0 141 -112.5 141t-112.5 -141v-156h-213v142q0 174 84 267t248 93t248 -93t84 -267q0 -125 -42 -228.5t-91.5 -160t-91.5 -137.5t-42 -167q0 -45 8 -80zM236 217h217v-217h-217v217z"/>
<glyph unicode="@" horiz-adv-x="1411" d="M975 260q-168 0 -180 135q-63 -129 -199 -123q-217 6 -184 316l22 207q16 152 80 229.5t170 73.5q127 -2 168 -127l12 119h197l-62 -592q-6 -51 41 -52q80 0 122 142.5t42 320.5q0 201 -100 316.5t-307 115.5q-270 0 -412.5 -200.5t-142.5 -556.5q0 -254 119.5 -394.5 t357.5 -140.5q244 0 424 139l-17 -196q-172 -115 -419 -115q-334 0 -496 191.5t-162 525.5q0 193 48 358.5t139.5 291.5t238 199t330.5 73q303 0 436 -164t133 -439q0 -178 -39 -312t-102.5 -204.5t-127.5 -103.5t-130 -33zM629 772l-19 -174q-14 -131 88 -135 q47 -2 77 29.5t38 99.5l21 194q6 57 -18.5 86t-70.5 29q-49 2 -78.5 -28.5t-37.5 -100.5z"/>
<glyph unicode="A" horiz-adv-x="833" d="M582 1434l229 -1434h-227l-39 260h-277l-39 -260h-206l229 1434h330zM406 1180l-109 -725h217z"/>
<glyph unicode="B" horiz-adv-x="831" d="M422 1434q174 0 254 -81t80 -249v-51q0 -221 -146 -289q168 -66 168 -307v-117q0 -166 -87 -253t-255 -87h-354v1434h340zM408 645h-101v-440h129q59 0 88 31.5t29 109.5v125q0 98 -33.5 136t-111.5 38zM416 1229h-109v-379h88q68 0 101.5 35t33.5 116v80q1 148 -114 148 z"/>
<glyph unicode="C" horiz-adv-x="790" d="M522 535h213v-191q0 -174 -86 -267t-249.5 -93t-250 93t-86.5 267v746q0 174 86.5 267t250 93t249.5 -93t86 -267v-140h-213v154q0 141 -116.5 141t-116.5 -141v-774q0 -139 117 -140q116 0 116 140v205z"/>
<glyph unicode="D" horiz-adv-x="835" d="M82 0v1434h356q336 0 336 -355v-725q0 -354 -336 -354h-356zM434 1229h-127v-1024h127q115 0 115 139v746q0 139 -115 139z"/>
<glyph unicode="E" horiz-adv-x="753" d="M307 1229v-400h309v-204h-309v-420h389v-205h-614v1434h614v-205h-389z"/>
<glyph unicode="F" horiz-adv-x="704" d="M307 1229v-432h291v-205h-291v-592h-225v1434h596v-205h-371z"/>
<glyph unicode="G" horiz-adv-x="798" d="M420 594v205h315v-455q0 -174 -86 -267t-249.5 -93t-250 93t-86.5 267v746q0 174 86.5 267t250 93t249.5 -93t86 -267v-140h-213v154q0 141 -116.5 141t-116.5 -141v-774q0 -139 117 -140q116 0 116 140v264h-102z"/>
<glyph unicode="H" horiz-adv-x="874" d="M307 614v-614h-225v1434h225v-615h256v615h230v-1434h-230v614h-256z"/>
<glyph unicode="I" horiz-adv-x="389" d="M82 0v1434h225v-1434h-225z"/>
<glyph unicode="J" horiz-adv-x="524" d="M20 0v205q25 -2 78 -2q129 0 129 137v1094h226v-1078q0 -360 -324 -360q-72 0 -109 4z"/>
<glyph unicode="K" horiz-adv-x="847" d="M596 0l-219 571l-70 -131v-440h-225v1434h225v-625l295 625h225l-313 -639l313 -795h-231z"/>
<glyph unicode="L" horiz-adv-x="694" d="M82 0v1434h225v-1229h371v-205h-596z"/>
<glyph unicode="M" horiz-adv-x="1107" d="M393 1434l166 -1018l154 1018h313v-1434h-213v1028l-156 -1028h-213l-168 1014v-1014h-196v1434h313z"/>
<glyph unicode="N" horiz-adv-x="874" d="M563 0l-280 1038v-1038h-203v1434h282l232 -859v859h201v-1434h-232z"/>
<glyph unicode="O" d="M289 1104v-774q0 -141 117 -142q116 0 116 142v774q0 141 -116.5 141t-116.5 -141zM63 344v746q0 172 88.5 266t254 94t254 -94t88.5 -266v-746q0 -172 -88.5 -266t-254 -94t-254 94t-88.5 266z"/>
<glyph unicode="P" horiz-adv-x="772" d="M414 1434q336 0 336 -355v-186q0 -354 -336 -354h-107v-539h-225v1434h332zM414 1229h-107v-486h107q55 0 82.5 31t27.5 105v215q0 74 -27.5 104.5t-82.5 30.5z"/>
<glyph unicode="Q" d="M63 344v746q0 172 88.5 266t254 94t254 -94t88.5 -266v-746q0 -121 -43 -201q12 -30 60 -30h3h20v-201h-30q-145 0 -195 98q-71 -26 -151 -26h-6q-166 0 -254.5 94t-88.5 266zM289 1104v-774q0 -141 117 -142q116 0 116 142v774q0 141 -116.5 141t-116.5 -141z"/>
<glyph unicode="R" horiz-adv-x="823" d="M782 0h-229q-20 61 -21 176v225q0 98 -34.5 140.5t-112.5 42.5h-78v-584h-225v1434h340q174 0 254 -81t80 -249v-113q0 -221 -148 -291q150 -63 150 -305v-221v-9q0 -110 24 -165zM416 1229h-109v-441h88q68 0 101.5 35t33.5 117v141q1 148 -114 148z"/>
<glyph unicode="S" horiz-adv-x="765" d="M53 1090q0 174 84 267t248 93t248 -93t84 -267v-46h-213v60q0 141 -112.5 141t-112.5 -141q0 -59 24.5 -112.5t63.5 -96.5t86 -85t93 -88t85 -98.5t63.5 -124t24.5 -155.5q0 -174 -86 -267t-250 -93t-250 93t-86 267v88h213v-102q0 -139 117 -140h1q116 0 116 140 q0 80 -45.5 150.5t-110.5 127.5l-130 120q-65 63 -110 156t-45 206z"/>
<glyph unicode="T" horiz-adv-x="729" d="M16 1229v205h697v-205h-236v-1229h-225v1229h-236z"/>
<glyph unicode="U" horiz-adv-x="815" d="M72 1434h225v-1106q0 -139 117 -140q116 0 116 140v1106h213v-1092q0 -174 -86 -267t-249.5 -93t-249.5 93t-86 267v1092z"/>
<glyph unicode="V" horiz-adv-x="823" d="M250 1434l172 -1170l172 1170h207l-221 -1434h-336l-221 1434h227z"/>
<glyph unicode="W" horiz-adv-x="1153" d="M664 0l-82 764l-82 -764h-310l-159 1434h219l121 -1131l108 1131h217l113 -1139l117 1139h196l-159 -1434h-299z"/>
<glyph unicode="X" horiz-adv-x="880" d="M625 1434h209l-236 -697l252 -737h-238l-184 567l-186 -567h-211l252 737l-236 697h234l170 -529z"/>
<glyph unicode="Y" d="M293 0v475l-285 959h236l172 -654l172 654h215l-285 -959v-475h-225z"/>
<glyph unicode="Z" horiz-adv-x="757" d="M68 1434h639v-201l-428 -1028h428v-205h-660v201l428 1028h-407v205z"/>
<glyph unicode="[" horiz-adv-x="514" d="M96 0v1434h373v-185h-147v-1065h147v-184h-373z"/>
<glyph unicode="\" horiz-adv-x="780" d="M205 1434l565 -1434h-195l-565 1434h195z"/>
<glyph unicode="]" horiz-adv-x="514" d="M418 1434v-1434h-373v184h148v1065h-148v185h373z"/>
<glyph unicode="^" d="M41 799l285 635h159l285 -635h-180l-184 430l-185 -430h-180z"/>
<glyph unicode="_" horiz-adv-x="1024" d="M0 -184v164h1024v-164h-1024z"/>
<glyph unicode="`" horiz-adv-x="512" d="M90 1737h232l139 -228h-162z"/>
<glyph unicode="a" horiz-adv-x="833" d="M582 1434l229 -1434h-227l-39 260h-277l-39 -260h-206l229 1434h330zM406 1180l-109 -725h217z"/>
<glyph unicode="b" horiz-adv-x="831" d="M422 1434q174 0 254 -81t80 -249v-51q0 -221 -146 -289q168 -66 168 -307v-117q0 -166 -87 -253t-255 -87h-354v1434h340zM408 645h-101v-440h129q59 0 88 31.5t29 109.5v125q0 98 -33.5 136t-111.5 38zM416 1229h-109v-379h88q68 0 101.5 35t33.5 116v80q1 148 -114 148 z"/>
<glyph unicode="c" horiz-adv-x="790" d="M522 535h213v-191q0 -174 -86 -267t-249.5 -93t-250 93t-86.5 267v746q0 174 86.5 267t250 93t249.5 -93t86 -267v-140h-213v154q0 141 -116.5 141t-116.5 -141v-774q0 -139 117 -140q116 0 116 140v205z"/>
<glyph unicode="d" horiz-adv-x="835" d="M82 0v1434h356q336 0 336 -355v-725q0 -354 -336 -354h-356zM434 1229h-127v-1024h127q115 0 115 139v746q0 139 -115 139z"/>
<glyph unicode="e" horiz-adv-x="753" d="M307 1229v-400h309v-204h-309v-420h389v-205h-614v1434h614v-205h-389z"/>
<glyph unicode="f" horiz-adv-x="704" d="M307 1229v-432h291v-205h-291v-592h-225v1434h596v-205h-371z"/>
<glyph unicode="g" horiz-adv-x="798" d="M420 594v205h315v-455q0 -174 -86 -267t-249.5 -93t-250 93t-86.5 267v746q0 174 86.5 267t250 93t249.5 -93t86 -267v-140h-213v154q0 141 -116.5 141t-116.5 -141v-774q0 -139 117 -140q116 0 116 140v264h-102z"/>
<glyph unicode="h" horiz-adv-x="874" d="M307 614v-614h-225v1434h225v-615h256v615h230v-1434h-230v614h-256z"/>
<glyph unicode="i" horiz-adv-x="389" d="M82 0v1434h225v-1434h-225z"/>
<glyph unicode="j" horiz-adv-x="524" d="M20 0v205q25 -2 78 -2q129 0 129 137v1094h226v-1078q0 -360 -324 -360q-72 0 -109 4z"/>
<glyph unicode="k" horiz-adv-x="847" d="M596 0l-219 571l-70 -131v-440h-225v1434h225v-625l295 625h225l-313 -639l313 -795h-231z"/>
<glyph unicode="l" horiz-adv-x="694" d="M82 0v1434h225v-1229h371v-205h-596z"/>
<glyph unicode="m" horiz-adv-x="1107" d="M393 1434l166 -1018l154 1018h313v-1434h-213v1028l-156 -1028h-213l-168 1014v-1014h-196v1434h313z"/>
<glyph unicode="n" horiz-adv-x="874" d="M563 0l-280 1038v-1038h-203v1434h282l232 -859v859h201v-1434h-232z"/>
<glyph unicode="o" d="M289 1104v-774q0 -141 117 -142q116 0 116 142v774q0 141 -116.5 141t-116.5 -141zM63 344v746q0 172 88.5 266t254 94t254 -94t88.5 -266v-746q0 -172 -88.5 -266t-254 -94t-254 94t-88.5 266z"/>
<glyph unicode="p" horiz-adv-x="772" d="M414 1434q336 0 336 -355v-186q0 -354 -336 -354h-107v-539h-225v1434h332zM414 1229h-107v-486h107q55 0 82.5 31t27.5 105v215q0 74 -27.5 104.5t-82.5 30.5z"/>
<glyph unicode="q" d="M63 344v746q0 172 88.5 266t254 94t254 -94t88.5 -266v-746q0 -121 -43 -201q12 -30 60 -30h3h20v-201h-30q-145 0 -195 98q-71 -26 -151 -26h-6q-166 0 -254.5 94t-88.5 266zM289 1104v-774q0 -141 117 -142q116 0 116 142v774q0 141 -116.5 141t-116.5 -141z"/>
<glyph unicode="r" horiz-adv-x="823" d="M782 0h-229q-20 61 -21 176v225q0 98 -34.5 140.5t-112.5 42.5h-78v-584h-225v1434h340q174 0 254 -81t80 -249v-113q0 -221 -148 -291q150 -63 150 -305v-221v-9q0 -110 24 -165zM416 1229h-109v-441h88q68 0 101.5 35t33.5 117v141q1 148 -114 148z"/>
<glyph unicode="s" horiz-adv-x="765" d="M53 1090q0 174 84 267t248 93t248 -93t84 -267v-46h-213v60q0 141 -112.5 141t-112.5 -141q0 -59 24.5 -112.5t63.5 -96.5t86 -85t93 -88t85 -98.5t63.5 -124t24.5 -155.5q0 -174 -86 -267t-250 -93t-250 93t-86 267v88h213v-102q0 -139 117 -140h1q116 0 116 140 q0 80 -45.5 150.5t-110.5 127.5l-130 120q-65 63 -110 156t-45 206z"/>
<glyph unicode="t" horiz-adv-x="729" d="M16 1229v205h697v-205h-236v-1229h-225v1229h-236z"/>
<glyph unicode="u" horiz-adv-x="815" d="M72 1434h225v-1106q0 -139 117 -140q116 0 116 140v1106h213v-1092q0 -174 -86 -267t-249.5 -93t-249.5 93t-86 267v1092z"/>
<glyph unicode="v" horiz-adv-x="823" d="M250 1434l172 -1170l172 1170h207l-221 -1434h-336l-221 1434h227z"/>
<glyph unicode="w" horiz-adv-x="1153" d="M664 0l-82 764l-82 -764h-310l-159 1434h219l121 -1131l108 1131h217l113 -1139l117 1139h196l-159 -1434h-299z"/>
<glyph unicode="x" horiz-adv-x="880" d="M625 1434h209l-236 -697l252 -737h-238l-184 567l-186 -567h-211l252 737l-236 697h234l170 -529z"/>
<glyph unicode="y" d="M293 0v475l-285 959h236l172 -654l172 654h215l-285 -959v-475h-225z"/>
<glyph unicode="z" horiz-adv-x="757" d="M68 1434h639v-201l-428 -1028h428v-205h-660v201l428 1028h-407v205z"/>
<glyph unicode="{" horiz-adv-x="526" d="M209 717q125 -33 133 -182l10 -205q4 -82 29 -114t80 -32h33v-184h-115q-98 0 -158.5 57.5t-68.5 169.5l-17 275q-4 72 -26.5 97.5t-85.5 25.5v184q63 0 85.5 25.5t26.5 97.5l17 274q8 113 68.5 170.5t158.5 57.5h115v-185h-33q-55 0 -80 -31.5t-29 -113.5l-10 -205 q-8 -149 -133 -182z"/>
<glyph unicode="|" horiz-adv-x="1024" d="M430 -133v1700h184v-1700h-184z"/>
<glyph unicode="}" horiz-adv-x="526" d="M317 717q-125 33 -133 182l-10 205q-4 82 -28.5 113.5t-79.5 31.5h-33v185h114q98 0 159 -57.5t69 -170.5l16 -274q4 -72 26.5 -97.5t86.5 -25.5v-184q-63 0 -86 -26t-27 -97l-16 -275q-8 -113 -68.5 -170t-159.5 -57h-114v184h33q55 0 79.5 32t28.5 114l10 205 q8 149 133 182z"/>
<glyph unicode="~" d="M123 578l-107 102q70 104 126.5 144t117.5 40q59 0 155.5 -62.5t137.5 -62.5q33 0 58.5 23.5t76.5 93.5l107 -111q-70 -102 -125.5 -139t-118.5 -37q-59 0 -155.5 62.5t-137.5 62.5q-35 0 -60.5 -23t-74.5 -93z"/>
<glyph unicode="¡" horiz-adv-x="389" d="M111 1116h168l28 -518v-598h-225v598zM303 1217h-217v217h217v-217z"/>
<glyph unicode="¢" d="M313 -31v107q-240 49 -239 350v582q0 297 239 350v106h185v-104q248 -49 247 -352v-99h-213v113q0 141 -116.5 141t-116.5 -141v-610q0 -139 116.5 -139.5t116.5 139.5v163h213v-149q0 -305 -247 -352v-105h-185z"/>
<glyph unicode="£" d="M90 430v174h137q-14 39 -56 123t-65.5 167t-23.5 196q0 174 84 267t248 93t247.5 -93t83.5 -267v-142h-213v156q0 141 -112.5 141t-112.5 -141q0 -113 24.5 -200t62.5 -167t50 -133h248v-174h-233q-14 -145 -115 -225h387v-205h-670v197q82 0 137.5 62.5t57.5 170.5h-166 z"/>
<glyph unicode="¥" d="M582 1434h215l-262 -879h170v-113h-187v-92h187v-112h-187v-238h-225v238h-187v112h187v92h-187v113h168l-260 879h236l166 -633z"/>
<glyph unicode="¦" horiz-adv-x="1024" d="M430 840v727h184v-727h-184zM430 -133v727h184v-727h-184z"/>
<glyph unicode="§" d="M72 643q0 170 141 250q-141 92 -141 266q0 129 86 210t245.5 81t245.5 -76t86 -203v-73h-213v43q0 55 -29.5 89t-82.5 34q-113 0 -113 -115q0 -45 45 -79t109.5 -61.5t130 -64.5t110.5 -109.5t45 -177.5q0 -170 -143 -251q143 -88 143 -265q0 -129 -86 -210t-245.5 -81 t-245.5 76t-86 203v102h213v-71q0 -55 29.5 -89t82.5 -34q113 0 113 115q0 45 -45 78.5t-110.5 61t-130 64.5t-109.5 110t-45 177zM287 651q0 -57 31.5 -92t93.5 -65q49 8 79.5 52t30.5 103q0 94 -127 156q-49 -8 -78.5 -51.5t-29.5 -102.5z"/>
<glyph unicode="¨" horiz-adv-x="512" d="M2 1706h197v-197h-197v197zM313 1706h197v-197h-197v197z"/>
<glyph unicode="©" horiz-adv-x="1507" d="M829 631h148v-115q0 -250 -231.5 -250t-231.5 250v397q0 254 231.5 254t231.5 -254v-73h-148v86q0 98 -79.5 98t-79.5 -98v-418q0 -96 79.5 -96t79.5 96v123zM41 716.5q0 317.5 204 525.5t509 208t508.5 -208t203.5 -525.5t-203.5 -525t-508.5 -207.5t-509 207.5 t-204 525zM188 717q0 -256 161 -423t404.5 -167t404.5 167t161 423t-161 423t-404.5 167t-404.5 -167t-161 -423z"/>
<glyph unicode="ª" horiz-adv-x="569" d="M61 887q0 137 76 194.5t215 61.5v94q0 76 -57 76q-70 0 -70 -88v-47h-135v39q0 227 211 227q195 0 195 -227v-535h-121l-8 98q-35 -109 -146 -108q-160 0 -160 207v8zM61 588h435v-142h-435v142zM205 909v-18q0 -88 74 -88q68 0 73 74v159q-147 -6 -147 -127z"/>
<glyph unicode="«" horiz-adv-x="727" d="M160 1245h202l-124 -526l124 -559h-202l-127 559zM492 1245h202l-125 -526l125 -559h-202l-127 559z"/>
<glyph unicode="¬" d="M51 797h709v-441h-160v281h-549v160z"/>
<glyph unicode="­" horiz-adv-x="552" d="M72 614v205h409v-205h-409z"/>
<glyph unicode="®" horiz-adv-x="1507" d="M41 716.5q0 317.5 204 525.5t509 208t508.5 -208t203.5 -525.5t-203.5 -525t-508.5 -207.5t-509 207.5t-204 525zM188 717q0 -256 161 -423t404.5 -167t404.5 167t161 423t-161 423t-404.5 167t-404.5 -167t-161 -423zM1016 279h-160q-14 37 -14 122v95q0 70 -24.5 98.5 t-80.5 28.5h-53v-344h-156v876h238q231 0 231 -229v-19q0 -156 -106 -202q106 -43 106 -211v-95q1 -79 19 -120zM758 1012h-74v-246h64q94 0 94 104v37q0 105 -84 105z"/>
<glyph unicode="¯" horiz-adv-x="512" d="M20 1677h472v-159h-472v159z"/>
<glyph unicode="°" horiz-adv-x="466" d="M31 1247q0 84 59.5 143.5t143 59.5t143 -59.5t59.5 -143.5t-59.5 -143.5t-143 -59.5t-143 59.5t-59.5 143.5zM133 1247q0 -41 30 -70.5t70.5 -29.5t70.5 29.5t30 70.5t-30 71t-70.5 30t-70.5 -30t-30 -71z"/>
<glyph unicode="±" d="M485 1073v-276h275v-160h-275v-281h-159v281h-275v160h275v276h159z"/>
<glyph unicode="²" horiz-adv-x="573" d="M369 1409q0 102 -74 102t-74 -90v-96h-135v88q0 227 213 227t213 -227q0 -100 -48 -191.5t-104.5 -144.5t-98.5 -114.5t-32 -114.5h271v-129h-414v110q0 74 28.5 136.5t70.5 108.5l84 92q42 46 71 108.5t29 134.5z"/>
<glyph unicode="³" horiz-adv-x="573" d="M356 942v70q0 63 -21.5 88.5t-70.5 25.5h-49v129h55q86 0 86 99v51q0 104 -73.5 104t-73.5 -90v-57h-135v47q0 229 213 229t213 -229v-23q0 -145 -101 -186q100 -43 101 -190v-72q0 -229 -213 -229t-213 229v74h135v-84q0 -90 73.5 -90t73.5 104z"/>
<glyph unicode="´" horiz-adv-x="512" d="M195 1737h221l-209 -228h-152z"/>
<glyph unicode="¶" d="M729 1434v-1567h-164v1403h-110v-1403h-164l4 676q-127 0 -196.5 96t-69.5 254v186q0 354 336 355h364z"/>
<glyph unicode="·" horiz-adv-x="380" d="M82 825h217v-217h-217v217z"/>
<glyph unicode="¸" horiz-adv-x="512" d="M53 -182v20h152v-16q0 -41 45 -41q51 0 51 49q0 53 -74 53h-20v146h98v-109q78 0 115 -21.5t37 -74.5q0 -76 -51.5 -100.5t-155.5 -24.5q-197 0 -197 119z"/>
<glyph unicode="¹" horiz-adv-x="409" d="M51 1413v100q74 0 105.5 29t54.5 86h94v-909h-143v694h-111z"/>
<glyph unicode="º" horiz-adv-x="573" d="M213 1225v-334q0 -88 73.5 -88t73.5 88v334q0 88 -73.5 88t-73.5 -88zM70 899v318q0 109 56 168t160.5 59t161 -59.5t56.5 -167.5v-318q0 -109 -56.5 -168t-161 -59t-160.5 59t-56 168zM70 588h434v-142h-434v142z"/>
<glyph unicode="»" horiz-adv-x="727" d="M365 1245h202l127 -526l-127 -559h-202l124 559zM33 1245h203l126 -526l-126 -559h-203l125 559z"/>
<glyph unicode="¼" horiz-adv-x="1284" d="M133 1219v100q74 0 105.5 28.5t54.5 86.5h94v-910h-143v695h-111zM328 0l565 1434h133l-565 -1434h-133zM760 164v131l260 614h156v-614h67v-131h-67v-164h-142v164h-274zM889 295h145v336z"/>
<glyph unicode="½" horiz-adv-x="1284" d="M133 1219v100q74 0 105.5 28.5t54.5 86.5h94v-910h-143v695h-111zM266 0l565 1434h134l-566 -1434h-133zM1079 690q0 102 -73.5 102.5t-73.5 -90.5v-96h-135v88q0 227 213 227.5t213 -227.5q0 -100 -48.5 -191t-104.5 -144.5t-98 -115t-32 -114.5h270v-129h-413v111 q0 74 28.5 136t70.5 108l84 93q42 46 70.5 108t28.5 134z"/>
<glyph unicode="¾" horiz-adv-x="1284" d="M356 748v69q0 63 -21.5 89t-70.5 26h-49v129h55q86 0 86 98v51q0 104 -73.5 104.5t-73.5 -89.5v-58h-135v47q0 229 213 229.5t213 -229.5v-22q0 -145 -101 -186q100 -43 101 -191v-72q0 -229 -213 -229t-213 229v74h135v-84q0 -90 73.5 -89.5t73.5 104.5zM348 0l565 1434 h134l-566 -1434h-133zM760 164v131l260 614h156v-614h67v-131h-67v-164h-142v164h-274zM889 295h145v336z"/>
<glyph unicode="¿" horiz-adv-x="737" d="M291 1116h201q12 -37 12 -88q0 -104 -39 -191t-84 -141.5t-84 -150.5t-39 -215q0 -141 112.5 -141.5t112.5 141.5v155h213v-141q0 -174 -84 -267t-247.5 -93t-247.5 93t-84 267q0 125 42 228.5t91 159.5t91 137t42 167q0 45 -8 80zM502 1217h-217v217h217v-217z"/>
<glyph unicode="À" horiz-adv-x="833" d="M582 1434l229 -1434h-227l-39 260h-277l-39 -260h-206l229 1434h330zM406 1180l-109 -725h217zM170 1737h231l140 -228h-162z"/>
<glyph unicode="Á" horiz-adv-x="833" d="M582 1434l229 -1434h-227l-39 260h-277l-39 -260h-206l229 1434h330zM406 1180l-109 -725h217zM436 1737h221l-208 -228h-152z"/>
<glyph unicode="Â" horiz-adv-x="833" d="M582 1434l229 -1434h-227l-39 260h-277l-39 -260h-206l229 1434h330zM406 1180l-109 -725h217zM326 1509h-193l182 228h203l182 -228h-192l-92 113z"/>
<glyph unicode="Ã" horiz-adv-x="833" d="M582 1434l229 -1434h-227l-39 260h-277l-39 -260h-206l229 1434h330zM406 1180l-109 -725h217zM498 1665q59 0 88 59l108 -75q-51 -139 -174 -140q-45 0 -100 26t-84 26q-59 0 -88 -60l-109 76q51 139 174 139q47 0 102.5 -25.5t82.5 -25.5z"/>
<glyph unicode="Ä" horiz-adv-x="833" d="M582 1434l229 -1434h-227l-39 260h-277l-39 -260h-206l229 1434h330zM406 1180l-109 -725h217zM162 1706h196v-197h-196v197zM473 1706h197v-197h-197v197z"/>
<glyph unicode="Å" horiz-adv-x="833" d="M582 1434l229 -1434h-227l-39 260h-277l-39 -260h-206l229 1434h330zM406 1180l-109 -725h217zM252 1667q0 70 47 117t116.5 47t117 -47t47.5 -117t-47.5 -117t-117 -47t-116.5 47t-47 117zM354 1667q0 -27 17.5 -44t44 -17t44 17t17.5 44t-17.5 44.5t-44 17.5t-44 -17.5 t-17.5 -44.5z"/>
<glyph unicode="Æ" horiz-adv-x="1187" d="M516 0v260h-227l-66 -260h-215l383 1434h739v-205h-389v-400h310v-204h-310v-420h389v-205h-614zM340 455h176v690z"/>
<glyph unicode="Ç" horiz-adv-x="790" d="M522 535h213v-191q0 -160 -74.5 -253t-216.5 -105v-66q78 0 115 -21.5t37 -74.5q0 -76 -51 -100.5t-156 -24.5q-197 0 -196 119v20h151v-16q0 -41 45 -41q51 0 51 49q0 53 -73 53h-21v105q-283 29 -283 356v746q0 174 86.5 267t250 93t249.5 -93t86 -267v-140h-213v154 q0 141 -116.5 141t-116.5 -141v-774q0 -139 116.5 -139.5t116.5 139.5v205z"/>
<glyph unicode="È" horiz-adv-x="753" d="M307 1229v-400h309v-204h-309v-420h389v-205h-614v1434h614v-205h-389zM139 1737h232l139 -228h-162z"/>
<glyph unicode="É" horiz-adv-x="753" d="M307 1229v-400h309v-204h-309v-420h389v-205h-614v1434h614v-205h-389zM408 1737h221l-209 -228h-152z"/>
<glyph unicode="Ê" horiz-adv-x="753" d="M307 1229v-400h309v-204h-309v-420h389v-205h-614v1434h614v-205h-389zM295 1509h-193l183 228h202l183 -228h-193l-92 113z"/>
<glyph unicode="Ë" horiz-adv-x="753" d="M307 1229v-400h309v-204h-309v-420h389v-205h-614v1434h614v-205h-389zM133 1706h197v-197h-197v197zM444 1706h197v-197h-197v197z"/>
<glyph unicode="Ì" horiz-adv-x="389" d="M82 0v1434h225v-1434h-225zM-51 1737h231l139 -228h-161z"/>
<glyph unicode="Í" horiz-adv-x="389" d="M82 0v1434h225v-1434h-225zM215 1737h221l-209 -228h-151z"/>
<glyph unicode="Î" horiz-adv-x="389" d="M82 0v1434h225v-1434h-225zM104 1509h-192l182 228h203l182 -228h-192l-92 113z"/>
<glyph unicode="Ï" horiz-adv-x="389" d="M82 0v1434h225v-1434h-225zM-59 1706h196v-197h-196v197zM252 1706h197v-197h-197v197z"/>
<glyph unicode="Ð" horiz-adv-x="835" d="M82 0v625h-74v184h74v625h356q336 0 336 -355v-725q0 -354 -336 -354h-356zM434 1229h-127v-420h139v-184h-139v-420h127q115 0 115 139v746q0 139 -115 139z"/>
<glyph unicode="Ñ" horiz-adv-x="874" d="M563 0l-280 1038v-1038h-203v1434h282l232 -859v859h201v-1434h-232zM518 1665q59 0 88 59l109 -75q-51 -139 -174 -140q-45 0 -100.5 26t-84.5 26q-59 0 -88 -60l-108 76q51 139 174 139q47 0 102 -25.5t82 -25.5z"/>
<glyph unicode="Ò" d="M289 1104v-774q0 -141 116.5 -141.5t116.5 141.5v774q0 141 -116.5 141t-116.5 -141zM63 344v746q0 172 88.5 266t254 94t254 -94t88.5 -266v-746q0 -172 -88.5 -266t-254 -94t-254 94t-88.5 266zM158 1737h231l139 -228h-161z"/>
<glyph unicode="Ó" d="M289 1104v-774q0 -141 116.5 -141.5t116.5 141.5v774q0 141 -116.5 141t-116.5 -141zM63 344v746q0 172 88.5 266t254 94t254 -94t88.5 -266v-746q0 -172 -88.5 -266t-254 -94t-254 94t-88.5 266zM426 1737h221l-209 -228h-151z"/>
<glyph unicode="Ô" d="M289 1104v-774q0 -141 116.5 -141.5t116.5 141.5v774q0 141 -116.5 141t-116.5 -141zM63 344v746q0 172 88.5 266t254 94t254 -94t88.5 -266v-746q0 -172 -88.5 -266t-254 -94t-254 94t-88.5 266zM313 1509h-192l182 228h203l182 -228h-192l-93 113z"/>
<glyph unicode="Õ" d="M289 1104v-774q0 -141 116.5 -141.5t116.5 141.5v774q0 141 -116.5 141t-116.5 -141zM63 344v746q0 172 88.5 266t254 94t254 -94t88.5 -266v-746q0 -172 -88.5 -266t-254 -94t-254 94t-88.5 266zM487 1665q59 0 88 59l109 -75q-51 -139 -174 -140q-47 0 -102.5 26 t-81.5 26q-59 0 -88 -60l-109 76q51 139 174 139q45 0 100 -25.5t84 -25.5z"/>
<glyph unicode="Ö" d="M289 1104v-774q0 -141 116.5 -141.5t116.5 141.5v774q0 141 -116.5 141t-116.5 -141zM63 344v746q0 172 88.5 266t254 94t254 -94t88.5 -266v-746q0 -172 -88.5 -266t-254 -94t-254 94t-88.5 266zM152 1706h196v-197h-196v197zM463 1706h196v-197h-196v197z"/>
<glyph unicode="×" d="M188 1040l218 -215l217 217l108 -108l-217 -217l217 -217l-108 -109l-217 217l-220 -217l-108 109l217 217l-215 215z"/>
<glyph unicode="Ø" d="M84 -49l51 143q-72 94 -72 250v746q0 172 88.5 266t254.5 94q123 0 204 -53l41 112l76 -26l-53 -146q74 -88 74 -247v-746q0 -172 -88.5 -266t-253.5 -94q-127 0 -205 51l-41 -111zM289 1104v-590l229 633q-14 98 -112 98q-117 0 -117 -141zM406 188q117 0 116 142v590 l-231 -633q17 -99 115 -99z"/>
<glyph unicode="Ù" horiz-adv-x="815" d="M72 1434h225v-1106q0 -139 116.5 -139.5t116.5 139.5v1106h213v-1092q0 -174 -86 -267t-249.5 -93t-249.5 93t-86 267v1092zM162 1737h231l139 -228h-161z"/>
<glyph unicode="Ú" horiz-adv-x="815" d="M72 1434h225v-1106q0 -139 116.5 -139.5t116.5 139.5v1106h213v-1092q0 -174 -86 -267t-249.5 -93t-249.5 93t-86 267v1092zM430 1737h221l-209 -228h-151z"/>
<glyph unicode="Û" horiz-adv-x="815" d="M72 1434h225v-1106q0 -139 116.5 -139.5t116.5 139.5v1106h213v-1092q0 -174 -86 -267t-249.5 -93t-249.5 93t-86 267v1092zM319 1509h-192l182 228h203l182 -228h-192l-92 113z"/>
<glyph unicode="Ü" horiz-adv-x="815" d="M72 1434h225v-1106q0 -139 116.5 -139.5t116.5 139.5v1106h213v-1092q0 -174 -86 -267t-249.5 -93t-249.5 93t-86 267v1092zM158 1706h196v-197h-196v197zM469 1706h197v-197h-197v197z"/>
<glyph unicode="Ý" d="M293 0v475l-285 959h236l172 -654l172 654h215l-285 -959v-475h-225zM434 1737h221l-209 -228h-151z"/>
<glyph unicode="Þ" horiz-adv-x="772" d="M82 0v1434h225v-164h107q336 0 336 -355v-186q0 -354 -336 -354h-107v-375h-225zM414 1065h-107v-485h107q55 0 82.5 30.5t27.5 104.5v215q0 74 -27.5 104.5t-82.5 30.5z"/>
<glyph unicode="ß" horiz-adv-x="1531" d="M53 1090q0 174 84 267t248 93t248 -93t84 -267v-46h-213v60q0 141 -112.5 141t-112.5 -141q0 -59 24.5 -112.5t63.5 -96.5t86 -85t93 -88t85 -98.5t63.5 -124t24.5 -155.5q0 -174 -86 -267t-250 -93t-250 93t-86 267v88h213v-102q0 -139 117 -139.5t117 139.5 q0 80 -46 150t-110 128l-130 120q-66 62 -110.5 155.5t-44.5 206.5zM819 1090q0 174 84 267t248 93t248 -93t84 -267v-46h-213v60q0 141 -113 141t-113 -141q0 -59 25 -112.5t63.5 -96.5t86 -85t93.5 -88t85 -98.5t63.5 -124t24.5 -155.5q0 -174 -86 -267t-250 -93t-250 93 t-86 267v88h213v-102q0 -139 117 -139.5t117 139.5q0 80 -46 150t-110 128l-130 120q-66 62 -110.5 155.5t-44.5 206.5z"/>
<glyph unicode="à" horiz-adv-x="833" d="M582 1434l229 -1434h-227l-39 260h-277l-39 -260h-206l229 1434h330zM406 1180l-109 -725h217zM170 1737h231l140 -228h-162z"/>
<glyph unicode="á" horiz-adv-x="833" d="M582 1434l229 -1434h-227l-39 260h-277l-39 -260h-206l229 1434h330zM406 1180l-109 -725h217zM436 1737h221l-208 -228h-152z"/>
<glyph unicode="â" horiz-adv-x="833" d="M582 1434l229 -1434h-227l-39 260h-277l-39 -260h-206l229 1434h330zM406 1180l-109 -725h217zM326 1509h-193l182 228h203l182 -228h-192l-92 113z"/>
<glyph unicode="ã" horiz-adv-x="833" d="M582 1434l229 -1434h-227l-39 260h-277l-39 -260h-206l229 1434h330zM406 1180l-109 -725h217zM498 1665q59 0 88 59l108 -75q-51 -139 -174 -140q-45 0 -100 26t-84 26q-59 0 -88 -60l-109 76q51 139 174 139q47 0 102.5 -25.5t82.5 -25.5z"/>
<glyph unicode="ä" horiz-adv-x="833" d="M582 1434l229 -1434h-227l-39 260h-277l-39 -260h-206l229 1434h330zM406 1180l-109 -725h217zM162 1706h196v-197h-196v197zM473 1706h197v-197h-197v197z"/>
<glyph unicode="å" horiz-adv-x="833" d="M582 1434l229 -1434h-227l-39 260h-277l-39 -260h-206l229 1434h330zM406 1180l-109 -725h217zM252 1667q0 70 47 117t116.5 47t117 -47t47.5 -117t-47.5 -117t-117 -47t-116.5 47t-47 117zM354 1667q0 -27 17.5 -44t44 -17t44 17t17.5 44t-17.5 44.5t-44 17.5t-44 -17.5 t-17.5 -44.5z"/>
<glyph unicode="æ" horiz-adv-x="1187" d="M741 1229v-400h310v-204h-310v-420h389v-205h-614v260h-227l-66 -260h-215l383 1434h739v-205h-389zM340 455h176v690z"/>
<glyph unicode="ç" horiz-adv-x="790" d="M522 535h213v-191q0 -160 -74.5 -253t-216.5 -105v-66q78 0 115 -21.5t37 -74.5q0 -76 -51 -100.5t-156 -24.5q-197 0 -196 119v20h151v-16q0 -41 45 -41q51 0 51 49q0 53 -73 53h-21v105q-283 29 -283 356v746q0 174 86.5 267t250 93t249.5 -93t86 -267v-140h-213v154 q0 141 -116.5 141t-116.5 -141v-774q0 -139 116.5 -139.5t116.5 139.5v205z"/>
<glyph unicode="è" horiz-adv-x="753" d="M307 1229v-400h309v-204h-309v-420h389v-205h-614v1434h614v-205h-389zM139 1737h232l139 -228h-162z"/>
<glyph unicode="é" horiz-adv-x="753" d="M307 1229v-400h309v-204h-309v-420h389v-205h-614v1434h614v-205h-389zM408 1737h221l-209 -228h-152z"/>
<glyph unicode="ê" horiz-adv-x="753" d="M307 1229v-400h309v-204h-309v-420h389v-205h-614v1434h614v-205h-389zM295 1509h-193l183 228h202l183 -228h-193l-92 113z"/>
<glyph unicode="ë" horiz-adv-x="753" d="M307 1229v-400h309v-204h-309v-420h389v-205h-614v1434h614v-205h-389zM133 1706h197v-197h-197v197zM444 1706h197v-197h-197v197z"/>
<glyph unicode="ì" horiz-adv-x="389" d="M82 0v1434h225v-1434h-225zM-51 1737h231l139 -228h-161z"/>
<glyph unicode="í" horiz-adv-x="389" d="M82 0v1434h225v-1434h-225zM215 1737h221l-209 -228h-151z"/>
<glyph unicode="î" horiz-adv-x="389" d="M82 0v1434h225v-1434h-225zM104 1509h-192l182 228h203l182 -228h-192l-92 113z"/>
<glyph unicode="ï" horiz-adv-x="389" d="M82 0v1434h225v-1434h-225zM-59 1706h196v-197h-196v197zM252 1706h197v-197h-197v197z"/>
<glyph unicode="ð" horiz-adv-x="835" d="M82 0v625h-74v184h74v625h356q336 0 336 -355v-725q0 -354 -336 -354h-356zM434 1229h-127v-420h139v-184h-139v-420h127q115 0 115 139v746q0 139 -115 139z"/>
<glyph unicode="ñ" horiz-adv-x="874" d="M563 0l-280 1038v-1038h-203v1434h282l232 -859v859h201v-1434h-232zM518 1665q59 0 88 59l109 -75q-51 -139 -174 -140q-45 0 -100.5 26t-84.5 26q-59 0 -88 -60l-108 76q51 139 174 139q47 0 102 -25.5t82 -25.5z"/>
<glyph unicode="ò" d="M289 1104v-774q0 -141 116.5 -141.5t116.5 141.5v774q0 141 -116.5 141t-116.5 -141zM63 344v746q0 172 88.5 266t254 94t254 -94t88.5 -266v-746q0 -172 -88.5 -266t-254 -94t-254 94t-88.5 266zM158 1737h231l139 -228h-161z"/>
<glyph unicode="ó" d="M289 1104v-774q0 -141 116.5 -141.5t116.5 141.5v774q0 141 -116.5 141t-116.5 -141zM63 344v746q0 172 88.5 266t254 94t254 -94t88.5 -266v-746q0 -172 -88.5 -266t-254 -94t-254 94t-88.5 266zM426 1737h221l-209 -228h-151z"/>
<glyph unicode="ô" d="M289 1104v-774q0 -141 116.5 -141.5t116.5 141.5v774q0 141 -116.5 141t-116.5 -141zM63 344v746q0 172 88.5 266t254 94t254 -94t88.5 -266v-746q0 -172 -88.5 -266t-254 -94t-254 94t-88.5 266zM313 1509h-192l182 228h203l182 -228h-192l-93 113z"/>
<glyph unicode="õ" d="M289 1104v-774q0 -141 116.5 -141.5t116.5 141.5v774q0 141 -116.5 141t-116.5 -141zM63 344v746q0 172 88.5 266t254 94t254 -94t88.5 -266v-746q0 -172 -88.5 -266t-254 -94t-254 94t-88.5 266zM487 1665q59 0 88 59l109 -75q-51 -139 -174 -140q-47 0 -102.5 26 t-81.5 26q-59 0 -88 -60l-109 76q51 139 174 139q45 0 100 -25.5t84 -25.5z"/>
<glyph unicode="ö" d="M289 1104v-774q0 -141 116.5 -141.5t116.5 141.5v774q0 141 -116.5 141t-116.5 -141zM63 344v746q0 172 88.5 266t254 94t254 -94t88.5 -266v-746q0 -172 -88.5 -266t-254 -94t-254 94t-88.5 266zM152 1706h196v-197h-196v197zM463 1706h196v-197h-196v197z"/>
<glyph unicode="÷" d="M297 512h217v-217h-217v217zM297 1137h217v-217h-217v217zM51 797h709v-160h-709v160z"/>
<glyph unicode="ø" d="M63 344v746q0 172 88.5 266t254.5 94q123 0 204 -53l41 112l76 -26l-53 -146q74 -88 74 -247v-746q0 -172 -88.5 -266t-253.5 -94q-127 0 -205 51l-41 -111l-76 27l51 143q-72 94 -72 250zM289 1104v-590l229 633q-14 98 -112 98q-117 0 -117 -141zM406 188 q117 0 116 142v590l-231 -633q17 -99 115 -99z"/>
<glyph unicode="ù" horiz-adv-x="815" d="M72 1434h225v-1106q0 -139 116.5 -139.5t116.5 139.5v1106h213v-1092q0 -174 -86 -267t-249.5 -93t-249.5 93t-86 267v1092zM162 1737h231l139 -228h-161z"/>
<glyph unicode="ú" horiz-adv-x="815" d="M72 1434h225v-1106q0 -139 116.5 -139.5t116.5 139.5v1106h213v-1092q0 -174 -86 -267t-249.5 -93t-249.5 93t-86 267v1092zM430 1737h221l-209 -228h-151z"/>
<glyph unicode="û" horiz-adv-x="815" d="M72 1434h225v-1106q0 -139 116.5 -139.5t116.5 139.5v1106h213v-1092q0 -174 -86 -267t-249.5 -93t-249.5 93t-86 267v1092zM319 1509h-192l182 228h203l182 -228h-192l-92 113z"/>
<glyph unicode="ü" horiz-adv-x="815" d="M72 1434h225v-1106q0 -139 116.5 -139.5t116.5 139.5v1106h213v-1092q0 -174 -86 -267t-249.5 -93t-249.5 93t-86 267v1092zM158 1706h196v-197h-196v197zM469 1706h197v-197h-197v197z"/>
<glyph unicode="ý" d="M293 0v475l-285 959h236l172 -654l172 654h215l-285 -959v-475h-225zM434 1737h221l-209 -228h-151z"/>
<glyph unicode="þ" horiz-adv-x="772" d="M82 0v1434h225v-164h107q336 0 336 -355v-186q0 -354 -336 -354h-107v-375h-225zM414 1065h-107v-485h107q55 0 82.5 30.5t27.5 104.5v215q0 74 -27.5 104.5t-82.5 30.5z"/>
<glyph unicode="ÿ" d="M293 0v475l-285 959h236l172 -654l172 654h215l-285 -959v-475h-225zM160 1706h196v-197h-196v197zM471 1706h197v-197h-197v197z"/>
<glyph unicode="Ā" horiz-adv-x="833" d="M582 1434l229 -1434h-227l-39 260h-277l-39 -260h-206l229 1434h330zM406 1180l-109 -725h217zM180 1677h471v-159h-471v159z"/>
<glyph unicode="ā" horiz-adv-x="833" d="M582 1434l229 -1434h-227l-39 260h-277l-39 -260h-206l229 1434h330zM406 1180l-109 -725h217zM180 1677h471v-159h-471v159z"/>
<glyph unicode="Ă" horiz-adv-x="833" d="M582 1434l229 -1434h-227l-39 260h-277l-39 -260h-206l229 1434h330zM406 1180l-109 -725h217zM512 1737h133q0 -111 -59.5 -173.5t-172 -62.5t-169 62.5t-58.5 173.5h133q4 -55 27 -76t68 -21q47 0 70.5 21t27.5 76z"/>
<glyph unicode="ă" horiz-adv-x="833" d="M582 1434l229 -1434h-227l-39 260h-277l-39 -260h-206l229 1434h330zM406 1180l-109 -725h217zM512 1737h133q0 -111 -59.5 -173.5t-172 -62.5t-169 62.5t-58.5 173.5h133q4 -55 27 -76t68 -21q47 0 70.5 21t27.5 76z"/>
<glyph unicode="Ą" horiz-adv-x="833" d="M582 1434l229 -1434h-84q-61 -51 -61 -119q0 -27 20.5 -42t50.5 -15q29 0 74 12v-115q-57 -23 -139 -22q-84 0 -131 32.5t-47 94.5q0 86 96 149l-45 285h-277l-39 -260h-206l229 1434h330zM406 1180l-109 -725h217z"/>
<glyph unicode="ą" horiz-adv-x="833" d="M582 1434l229 -1434h-84q-61 -51 -61 -119q0 -27 20.5 -42t50.5 -15q29 0 74 12v-115q-57 -23 -139 -22q-84 0 -131 32.5t-47 94.5q0 86 96 149l-45 285h-277l-39 -260h-206l229 1434h330zM406 1180l-109 -725h217z"/>
<glyph unicode="Ć" horiz-adv-x="790" d="M522 535h213v-191q0 -174 -86 -267t-249.5 -93t-250 93t-86.5 267v746q0 174 86.5 267t250 93t249.5 -93t86 -267v-140h-213v154q0 141 -116.5 141t-116.5 -141v-774q0 -139 116.5 -139.5t116.5 139.5v205zM420 1737h221l-209 -228h-151z"/>
<glyph unicode="ć" horiz-adv-x="790" d="M522 535h213v-191q0 -174 -86 -267t-249.5 -93t-250 93t-86.5 267v746q0 174 86.5 267t250 93t249.5 -93t86 -267v-140h-213v154q0 141 -116.5 141t-116.5 -141v-774q0 -139 116.5 -139.5t116.5 139.5v205zM420 1737h221l-209 -228h-151z"/>
<glyph unicode="Ĉ" horiz-adv-x="790" d="M522 535h213v-191q0 -174 -86 -267t-249.5 -93t-250 93t-86.5 267v746q0 174 86.5 267t250 93t249.5 -93t86 -267v-140h-213v154q0 141 -116.5 141t-116.5 -141v-774q0 -139 116.5 -139.5t116.5 139.5v205zM307 1509h-192l182 228h203l182 -228h-193l-92 113z"/>
<glyph unicode="ĉ" horiz-adv-x="790" d="M522 535h213v-191q0 -174 -86 -267t-249.5 -93t-250 93t-86.5 267v746q0 174 86.5 267t250 93t249.5 -93t86 -267v-140h-213v154q0 141 -116.5 141t-116.5 -141v-774q0 -139 116.5 -139.5t116.5 139.5v205zM307 1509h-192l182 228h203l182 -228h-193l-92 113z"/>
<glyph unicode="Ċ" horiz-adv-x="790" d="M522 535h213v-191q0 -174 -86 -267t-249.5 -93t-250 93t-86.5 267v746q0 174 86.5 267t250 93t249.5 -93t86 -267v-140h-213v154q0 141 -116.5 141t-116.5 -141v-774q0 -139 116.5 -139.5t116.5 139.5v205zM301 1706h197v-197h-197v197z"/>
<glyph unicode="ċ" horiz-adv-x="790" d="M522 535h213v-191q0 -174 -86 -267t-249.5 -93t-250 93t-86.5 267v746q0 174 86.5 267t250 93t249.5 -93t86 -267v-140h-213v154q0 141 -116.5 141t-116.5 -141v-774q0 -139 116.5 -139.5t116.5 139.5v205zM301 1706h197v-197h-197v197z"/>
<glyph unicode="Č" horiz-adv-x="790" d="M522 535h213v-191q0 -174 -86 -267t-249.5 -93t-250 93t-86.5 267v746q0 174 86.5 267t250 93t249.5 -93t86 -267v-140h-213v154q0 141 -116.5 141t-116.5 -141v-774q0 -139 116.5 -139.5t116.5 139.5v205zM115 1737h192l90 -115l92 115h193l-182 -228h-203z"/>
<glyph unicode="č" horiz-adv-x="790" d="M522 535h213v-191q0 -174 -86 -267t-249.5 -93t-250 93t-86.5 267v746q0 174 86.5 267t250 93t249.5 -93t86 -267v-140h-213v154q0 141 -116.5 141t-116.5 -141v-774q0 -139 116.5 -139.5t116.5 139.5v205zM115 1737h192l90 -115l92 115h193l-182 -228h-203z"/>
<glyph unicode="Ď" horiz-adv-x="835" d="M82 0v1434h356q336 0 336 -355v-725q0 -354 -336 -354h-356zM434 1229h-127v-1024h127q115 0 115 139v746q0 139 -115 139zM115 1737h192l90 -115l92 115h193l-182 -228h-203z"/>
<glyph unicode="ď" horiz-adv-x="835" d="M82 0v1434h356q336 0 336 -355v-725q0 -354 -336 -354h-356zM434 1229h-127v-1024h127q115 0 115 139v746q0 139 -115 139zM115 1737h192l90 -115l92 115h193l-182 -228h-203z"/>
<glyph unicode="Đ" horiz-adv-x="835" d="M82 0v625h-74v184h74v625h356q336 0 336 -355v-725q0 -354 -336 -354h-356zM434 1229h-127v-420h139v-184h-139v-420h127q115 0 115 139v746q0 139 -115 139z"/>
<glyph unicode="đ" horiz-adv-x="835" d="M82 0v625h-74v184h74v625h356q336 0 336 -355v-725q0 -354 -336 -354h-356zM434 1229h-127v-420h139v-184h-139v-420h127q115 0 115 139v746q0 139 -115 139z"/>
<glyph unicode="Ē" horiz-adv-x="753" d="M307 1229v-400h309v-204h-309v-420h389v-205h-614v1434h614v-205h-389zM150 1677h471v-159h-471v159z"/>
<glyph unicode="ē" horiz-adv-x="753" d="M307 1229v-400h309v-204h-309v-420h389v-205h-614v1434h614v-205h-389zM150 1677h471v-159h-471v159z"/>
<glyph unicode="Ĕ" horiz-adv-x="753" d="M307 1229v-400h309v-204h-309v-420h389v-205h-614v1434h614v-205h-389zM481 1737h133q0 -111 -59 -173.5t-172 -62.5t-169 62.5t-58 173.5h133q4 -55 26.5 -76t67.5 -21q47 0 70.5 21t27.5 76z"/>
<glyph unicode="ĕ" horiz-adv-x="753" d="M307 1229v-400h309v-204h-309v-420h389v-205h-614v1434h614v-205h-389zM481 1737h133q0 -111 -59 -173.5t-172 -62.5t-169 62.5t-58 173.5h133q4 -55 26.5 -76t67.5 -21q47 0 70.5 21t27.5 76z"/>
<glyph unicode="Ė" horiz-adv-x="753" d="M307 1229v-400h309v-204h-309v-420h389v-205h-614v1434h614v-205h-389zM287 1706h196v-197h-196v197z"/>
<glyph unicode="ė" horiz-adv-x="753" d="M307 1229v-400h309v-204h-309v-420h389v-205h-614v1434h614v-205h-389zM287 1706h196v-197h-196v197z"/>
<glyph unicode="Ę" horiz-adv-x="753" d="M307 1229v-400h309v-204h-309v-420h389v-205h-84q-61 -51 -61 -119q0 -27 20.5 -42t51.5 -15q29 0 73 12v-115q-57 -23 -139 -22q-84 0 -131 32.5t-47 94.5q0 104 137 174h-434v1434h614v-205h-389z"/>
<glyph unicode="ę" horiz-adv-x="753" d="M307 1229v-400h309v-204h-309v-420h389v-205h-84q-61 -51 -61 -119q0 -27 20.5 -42t51.5 -15q29 0 73 12v-115q-57 -23 -139 -22q-84 0 -131 32.5t-47 94.5q0 104 137 174h-434v1434h614v-205h-389z"/>
<glyph unicode="Ě" horiz-adv-x="753" d="M307 1229v-400h309v-204h-309v-420h389v-205h-614v1434h614v-205h-389zM100 1737h193l90 -115l92 115h193l-183 -228h-202z"/>
<glyph unicode="ě" horiz-adv-x="753" d="M307 1229v-400h309v-204h-309v-420h389v-205h-614v1434h614v-205h-389zM100 1737h193l90 -115l92 115h193l-183 -228h-202z"/>
<glyph unicode="Ĝ" horiz-adv-x="798" d="M420 594v205h315v-455q0 -174 -86 -267t-249.5 -93t-250 93t-86.5 267v746q0 174 86.5 267t250 93t249.5 -93t86 -267v-140h-213v154q0 141 -116.5 141t-116.5 -141v-774q0 -139 116.5 -139.5t116.5 139.5v264h-102zM307 1509h-192l182 228h203l182 -228h-193l-92 113z "/>
<glyph unicode="ĝ" horiz-adv-x="798" d="M420 594v205h315v-455q0 -174 -86 -267t-249.5 -93t-250 93t-86.5 267v746q0 174 86.5 267t250 93t249.5 -93t86 -267v-140h-213v154q0 141 -116.5 141t-116.5 -141v-774q0 -139 116.5 -139.5t116.5 139.5v264h-102zM307 1509h-192l182 228h203l182 -228h-193l-92 113z "/>
<glyph unicode="Ğ" horiz-adv-x="798" d="M420 594v205h315v-455q0 -174 -86 -267t-249.5 -93t-250 93t-86.5 267v746q0 174 86.5 267t250 93t249.5 -93t86 -267v-140h-213v154q0 141 -116.5 141t-116.5 -141v-774q0 -139 116.5 -139.5t116.5 139.5v264h-102zM494 1737h133q0 -111 -59.5 -173.5t-172 -62.5 t-169 62.5t-58.5 173.5h133q4 -55 26.5 -76t67.5 -21q47 0 71 21t28 76z"/>
<glyph unicode="ğ" horiz-adv-x="798" d="M420 594v205h315v-455q0 -174 -86 -267t-249.5 -93t-250 93t-86.5 267v746q0 174 86.5 267t250 93t249.5 -93t86 -267v-140h-213v154q0 141 -116.5 141t-116.5 -141v-774q0 -139 116.5 -139.5t116.5 139.5v264h-102zM494 1737h133q0 -111 -59.5 -173.5t-172 -62.5 t-169 62.5t-58.5 173.5h133q4 -55 26.5 -76t67.5 -21q47 0 71 21t28 76z"/>
<glyph unicode="Ġ" horiz-adv-x="798" d="M420 594v205h315v-455q0 -174 -86 -267t-249.5 -93t-250 93t-86.5 267v746q0 174 86.5 267t250 93t249.5 -93t86 -267v-140h-213v154q0 141 -116.5 141t-116.5 -141v-774q0 -139 116.5 -139.5t116.5 139.5v264h-102zM299 1706h197v-197h-197v197z"/>
<glyph unicode="ġ" horiz-adv-x="798" d="M420 594v205h315v-455q0 -174 -86 -267t-249.5 -93t-250 93t-86.5 267v746q0 174 86.5 267t250 93t249.5 -93t86 -267v-140h-213v154q0 141 -116.5 141t-116.5 -141v-774q0 -139 116.5 -139.5t116.5 139.5v264h-102zM299 1706h197v-197h-197v197z"/>
<glyph unicode="Ģ" horiz-adv-x="798" d="M420 594v205h315v-455q0 -174 -86 -267t-249.5 -93t-250 93t-86.5 267v746q0 174 86.5 267t250 93t249.5 -93t86 -267v-140h-213v154q0 141 -116.5 141t-116.5 -141v-774q0 -139 116.5 -139.5t116.5 139.5v264h-102zM379 -256h-74v188h189v-168l-88 -131h-80z"/>
<glyph unicode="ģ" horiz-adv-x="798" d="M420 594v205h315v-455q0 -174 -86 -267t-249.5 -93t-250 93t-86.5 267v746q0 174 86.5 267t250 93t249.5 -93t86 -267v-140h-213v154q0 141 -116.5 141t-116.5 -141v-774q0 -139 116.5 -139.5t116.5 139.5v264h-102zM379 -256h-74v188h189v-168l-88 -131h-80z"/>
<glyph unicode="Ĥ" horiz-adv-x="874" d="M307 614v-614h-225v1434h225v-615h256v615h230v-1434h-230v614h-256zM346 1509h-192l182 228h203l182 -228h-193l-92 113z"/>
<glyph unicode="ĥ" horiz-adv-x="874" d="M307 614v-614h-225v1434h225v-615h256v615h230v-1434h-230v614h-256zM346 1509h-192l182 228h203l182 -228h-193l-92 113z"/>
<glyph unicode="Ħ" horiz-adv-x="894" d="M317 614v-614h-225v1028h-72v168h72v238h225v-238h256v238h230v-238h71v-168h-71v-1028h-230v614h-256zM317 819h256v209h-256v-209z"/>
<glyph unicode="ħ" horiz-adv-x="894" d="M317 614v-614h-225v1028h-72v168h72v238h225v-238h256v238h230v-238h71v-168h-71v-1028h-230v614h-256zM317 819h256v209h-256v-209z"/>
<glyph unicode="Ĩ" horiz-adv-x="389" d="M82 0v1434h225v-1434h-225zM276 1665q59 0 89 59l108 -75q-51 -139 -174 -140q-45 0 -100.5 26t-83.5 26q-59 0 -88 -60l-109 76q51 139 174 139q47 0 102 -25.5t82 -25.5z"/>
<glyph unicode="ĩ" horiz-adv-x="389" d="M82 0v1434h225v-1434h-225zM276 1665q59 0 89 59l108 -75q-51 -139 -174 -140q-45 0 -100.5 26t-83.5 26q-59 0 -88 -60l-109 76q51 139 174 139q47 0 102 -25.5t82 -25.5z"/>
<glyph unicode="Ī" horiz-adv-x="389" d="M82 0v1434h225v-1434h-225zM-41 1677h471v-159h-471v159z"/>
<glyph unicode="ī" horiz-adv-x="389" d="M82 0v1434h225v-1434h-225zM-41 1677h471v-159h-471v159z"/>
<glyph unicode="Ĭ" horiz-adv-x="389" d="M82 0v1434h225v-1434h-225zM291 1737h133q0 -111 -59.5 -173.5t-172 -62.5t-169 62.5t-58.5 173.5h133q4 -55 26.5 -76t68.5 -21q47 0 70.5 21t27.5 76z"/>
<glyph unicode="ĭ" horiz-adv-x="389" d="M82 0v1434h225v-1434h-225zM291 1737h133q0 -111 -59.5 -173.5t-172 -62.5t-169 62.5t-58.5 173.5h133q4 -55 26.5 -76t68.5 -21q47 0 70.5 21t27.5 76z"/>
<glyph unicode="Į" horiz-adv-x="389" d="M82 0v1434h225v-1434h-41q-61 -51 -61 -119q0 -27 20.5 -42t50.5 -15q29 0 74 12v-115q-57 -23 -139 -22q-84 0 -131 32.5t-47 94.5q0 104 137 174h-88z"/>
<glyph unicode="į" horiz-adv-x="389" d="M82 0v1434h225v-1434h-41q-61 -51 -61 -119q0 -27 20.5 -42t50.5 -15q29 0 74 12v-115q-57 -23 -139 -22q-84 0 -131 32.5t-47 94.5q0 104 137 174h-88z"/>
<glyph unicode="İ" horiz-adv-x="389" d="M82 0v1434h225v-1434h-225zM96 1706h197v-197h-197v197z"/>
<glyph unicode="ı" horiz-adv-x="389" d="M82 0v1434h225v-1434h-225z"/>
<glyph unicode="Ĳ" horiz-adv-x="913" d="M82 0v1434h225v-1434h-225zM410 0v205q25 -2 77 -2q129 0 129 137v1094h226v-1078q0 -360 -324 -360q-71 0 -108 4z"/>
<glyph unicode="ĳ" horiz-adv-x="913" d="M82 0v1434h225v-1434h-225zM410 0v205q25 -2 77 -2q129 0 129 137v1094h226v-1078q0 -360 -324 -360q-71 0 -108 4z"/>
<glyph unicode="Ĵ" horiz-adv-x="524" d="M20 0v205q25 -2 78 -2q129 0 129 137v1094h226v-1078q0 -360 -324 -360q-72 0 -109 4zM211 1509h-193l183 228h202l183 -228h-193l-92 113z"/>
<glyph unicode="ĵ" horiz-adv-x="524" d="M20 0v205q25 -2 78 -2q129 0 129 137v1094h226v-1078q0 -360 -324 -360q-72 0 -109 4zM211 1509h-193l183 228h202l183 -228h-193l-92 113z"/>
<glyph unicode="Ķ" horiz-adv-x="847" d="M596 0l-219 571l-70 -131v-440h-225v1434h225v-625l295 625h225l-313 -639l313 -795h-231zM420 -256h-74v188h189v-168l-89 -131h-79z"/>
<glyph unicode="ķ" horiz-adv-x="847" d="M596 0l-219 571l-70 -131v-440h-225v1434h225v-625l295 625h225l-313 -639l313 -795h-231zM420 -256h-74v188h189v-168l-89 -131h-79z"/>
<glyph unicode="ĸ" horiz-adv-x="847" d="M596 0l-219 571l-70 -131v-440h-225v1434h225v-625l295 625h225l-313 -639l313 -795h-231z"/>
<glyph unicode="Ĺ" horiz-adv-x="694" d="M82 0v1434h225v-1229h371v-205h-596zM287 1737h221l-209 -228h-152z"/>
<glyph unicode="ĺ" horiz-adv-x="694" d="M82 0v1434h225v-1229h371v-205h-596zM287 1737h221l-209 -228h-152z"/>
<glyph unicode="Ļ" horiz-adv-x="694" d="M82 0v1434h225v-1229h371v-205h-596zM360 -256h-73v188h188v-168l-88 -131h-80z"/>
<glyph unicode="ļ" horiz-adv-x="694" d="M82 0v1434h225v-1229h371v-205h-596zM360 -256h-73v188h188v-168l-88 -131h-80z"/>
<glyph unicode="Ľ" horiz-adv-x="694" d="M82 0v1434h225v-1229h371v-205h-596zM518 1217h-86v217h217v-195l-98 -227h-92z"/>
<glyph unicode="ľ" horiz-adv-x="694" d="M82 0v1434h225v-1229h371v-205h-596zM518 1217h-86v217h217v-195l-98 -227h-92z"/>
<glyph unicode="Ŀ" horiz-adv-x="694" d="M82 0v1434h225v-1229h371v-205h-596zM430 825h217v-217h-217v217z"/>
<glyph unicode="ŀ" horiz-adv-x="694" d="M82 0v1434h225v-1229h371v-205h-596zM430 825h217v-217h-217v217z"/>
<glyph unicode="Ł" horiz-adv-x="712" d="M0 195v204l100 107v928h226v-686l247 266v-205l-247 -266v-338h370v-205h-596v301z"/>
<glyph unicode="ł" horiz-adv-x="712" d="M0 195v204l100 107v928h226v-686l247 266v-205l-247 -266v-338h370v-205h-596v301z"/>
<glyph unicode="Ń" horiz-adv-x="874" d="M563 0l-280 1038v-1038h-203v1434h282l232 -859v859h201v-1434h-232zM457 1737h221l-209 -228h-152z"/>
<glyph unicode="ń" horiz-adv-x="874" d="M563 0l-280 1038v-1038h-203v1434h282l232 -859v859h201v-1434h-232zM457 1737h221l-209 -228h-152z"/>
<glyph unicode="Ņ" horiz-adv-x="874" d="M563 0l-280 1038v-1038h-203v1434h282l232 -859v859h201v-1434h-232zM416 -256h-74v188h188v-168l-88 -131h-80z"/>
<glyph unicode="ņ" horiz-adv-x="874" d="M563 0l-280 1038v-1038h-203v1434h282l232 -859v859h201v-1434h-232zM416 -256h-74v188h188v-168l-88 -131h-80z"/>
<glyph unicode="Ň" horiz-adv-x="874" d="M563 0l-280 1038v-1038h-203v1434h282l232 -859v859h201v-1434h-232zM154 1737h192l90 -115l92 115h193l-182 -228h-203z"/>
<glyph unicode="ň" horiz-adv-x="874" d="M563 0l-280 1038v-1038h-203v1434h282l232 -859v859h201v-1434h-232zM154 1737h192l90 -115l92 115h193l-182 -228h-203z"/>
<glyph unicode="ŉ" horiz-adv-x="1112" d="M801 0l-281 1038v-1038h-203v1434h283l231 -859v859h201v-1434h-231zM96 1217h-86v217h217v-195l-98 -227h-92z"/>
<glyph unicode="Ō" d="M289 1104v-774q0 -141 116.5 -141.5t116.5 141.5v774q0 141 -116.5 141t-116.5 -141zM63 344v746q0 172 88.5 266t254 94t254 -94t88.5 -266v-746q0 -172 -88.5 -266t-254 -94t-254 94t-88.5 266zM170 1677h471v-159h-471v159z"/>
<glyph unicode="ō" d="M289 1104v-774q0 -141 116.5 -141.5t116.5 141.5v774q0 141 -116.5 141t-116.5 -141zM63 344v746q0 172 88.5 266t254 94t254 -94t88.5 -266v-746q0 -172 -88.5 -266t-254 -94t-254 94t-88.5 266zM170 1677h471v-159h-471v159z"/>
<glyph unicode="Ŏ" d="M289 1104v-774q0 -141 116.5 -141.5t116.5 141.5v774q0 141 -116.5 141t-116.5 -141zM63 344v746q0 172 88.5 266t254 94t254 -94t88.5 -266v-746q0 -172 -88.5 -266t-254 -94t-254 94t-88.5 266zM502 1737h133q0 -111 -59.5 -173.5t-172 -62.5t-169 62.5t-58.5 173.5 h133q4 -55 26.5 -76t67.5 -21q47 0 71 21t28 76z"/>
<glyph unicode="ŏ" d="M289 1104v-774q0 -141 116.5 -141.5t116.5 141.5v774q0 141 -116.5 141t-116.5 -141zM63 344v746q0 172 88.5 266t254 94t254 -94t88.5 -266v-746q0 -172 -88.5 -266t-254 -94t-254 94t-88.5 266zM502 1737h133q0 -111 -59.5 -173.5t-172 -62.5t-169 62.5t-58.5 173.5 h133q4 -55 26.5 -76t67.5 -21q47 0 71 21t28 76z"/>
<glyph unicode="Ő" d="M289 1104v-774q0 -141 116.5 -141.5t116.5 141.5v774q0 141 -116.5 141t-116.5 -141zM63 344v746q0 172 88.5 266t254 94t254 -94t88.5 -266v-746q0 -172 -88.5 -266t-254 -94t-254 94t-88.5 266zM270 1737h205l-170 -228h-137zM537 1737h206l-172 -228h-135z"/>
<glyph unicode="ő" d="M289 1104v-774q0 -141 116.5 -141.5t116.5 141.5v774q0 141 -116.5 141t-116.5 -141zM63 344v746q0 172 88.5 266t254 94t254 -94t88.5 -266v-746q0 -172 -88.5 -266t-254 -94t-254 94t-88.5 266zM270 1737h205l-170 -228h-137zM537 1737h206l-172 -228h-135z"/>
<glyph unicode="Œ" horiz-adv-x="1200" d="M754 1229v-400h309v-204h-309v-420h389v-205h-746q-336 0 -336 354v725q0 354 336 355h746v-205h-389zM528 205v1024h-127q-115 0 -114 -139v-746q0 -139 114 -139h127z"/>
<glyph unicode="œ" horiz-adv-x="1200" d="M754 1229v-400h309v-204h-309v-420h389v-205h-746q-336 0 -336 354v725q0 354 336 355h746v-205h-389zM528 205v1024h-127q-115 0 -114 -139v-746q0 -139 114 -139h127z"/>
<glyph unicode="Ŕ" horiz-adv-x="823" d="M782 0h-229q-20 61 -21 176v225q0 98 -34.5 140.5t-112.5 42.5h-78v-584h-225v1434h340q174 0 254 -81t80 -249v-113q0 -221 -148 -291q150 -63 150 -305v-221q-1 -117 24 -174zM416 1229h-109v-441h88q68 0 101.5 35t33.5 117v141q1 148 -114 148zM420 1737h221 l-209 -228h-151z"/>
<glyph unicode="ŕ" horiz-adv-x="823" d="M782 0h-229q-20 61 -21 176v225q0 98 -34.5 140.5t-112.5 42.5h-78v-584h-225v1434h340q174 0 254 -81t80 -249v-113q0 -221 -148 -291q150 -63 150 -305v-221q-1 -117 24 -174zM416 1229h-109v-441h88q68 0 101.5 35t33.5 117v141q1 148 -114 148zM420 1737h221 l-209 -228h-151z"/>
<glyph unicode="Ŗ" horiz-adv-x="823" d="M782 0h-229q-20 61 -21 176v225q0 98 -34.5 140.5t-112.5 42.5h-78v-584h-225v1434h340q174 0 254 -81t80 -249v-113q0 -221 -148 -291q150 -63 150 -305v-221q-1 -117 24 -174zM416 1229h-109v-441h88q68 0 101.5 35t33.5 117v141q1 148 -114 148zM395 -256h-73v188h188 v-168l-88 -131h-80z"/>
<glyph unicode="ŗ" horiz-adv-x="823" d="M782 0h-229q-20 61 -21 176v225q0 98 -34.5 140.5t-112.5 42.5h-78v-584h-225v1434h340q174 0 254 -81t80 -249v-113q0 -221 -148 -291q150 -63 150 -305v-221q-1 -117 24 -174zM416 1229h-109v-441h88q68 0 101.5 35t33.5 117v141q1 148 -114 148zM395 -256h-73v188h188 v-168l-88 -131h-80z"/>
<glyph unicode="Ř" horiz-adv-x="823" d="M782 0h-229q-20 61 -21 176v225q0 98 -34.5 140.5t-112.5 42.5h-78v-584h-225v1434h340q174 0 254 -81t80 -249v-113q0 -221 -148 -291q150 -63 150 -305v-221q-1 -117 24 -174zM416 1229h-109v-441h88q68 0 101.5 35t33.5 117v141q1 148 -114 148zM115 1737h192l90 -115 l92 115h193l-182 -228h-203z"/>
<glyph unicode="ř" horiz-adv-x="823" d="M782 0h-229q-20 61 -21 176v225q0 98 -34.5 140.5t-112.5 42.5h-78v-584h-225v1434h340q174 0 254 -81t80 -249v-113q0 -221 -148 -291q150 -63 150 -305v-221q-1 -117 24 -174zM416 1229h-109v-441h88q68 0 101.5 35t33.5 117v141q1 148 -114 148zM115 1737h192l90 -115 l92 115h193l-182 -228h-203z"/>
<glyph unicode="Ś" horiz-adv-x="765" d="M53 1090q0 174 84 267t248 93t248 -93t84 -267v-46h-213v60q0 141 -112.5 141t-112.5 -141q0 -59 24.5 -112.5t63.5 -96.5t86 -85t93 -88t85 -98.5t63.5 -124t24.5 -155.5q0 -174 -86 -267t-250 -93t-250 93t-86 267v88h213v-102q0 -139 117 -139.5t117 139.5 q0 80 -46 150t-110 128l-130 120q-66 62 -110.5 155.5t-44.5 206.5zM403 1737h222l-209 -228h-152z"/>
<glyph unicode="ś" horiz-adv-x="765" d="M53 1090q0 174 84 267t248 93t248 -93t84 -267v-46h-213v60q0 141 -112.5 141t-112.5 -141q0 -59 24.5 -112.5t63.5 -96.5t86 -85t93 -88t85 -98.5t63.5 -124t24.5 -155.5q0 -174 -86 -267t-250 -93t-250 93t-86 267v88h213v-102q0 -139 117 -139.5t117 139.5 q0 80 -46 150t-110 128l-130 120q-66 62 -110.5 155.5t-44.5 206.5zM403 1737h222l-209 -228h-152z"/>
<glyph unicode="Ŝ" horiz-adv-x="765" d="M53 1090q0 174 84 267t248 93t248 -93t84 -267v-46h-213v60q0 141 -112.5 141t-112.5 -141q0 -59 24.5 -112.5t63.5 -96.5t86 -85t93 -88t85 -98.5t63.5 -124t24.5 -155.5q0 -174 -86 -267t-250 -93t-250 93t-86 267v88h213v-102q0 -139 117 -139.5t117 139.5 q0 80 -46 150t-110 128l-130 120q-66 62 -110.5 155.5t-44.5 206.5zM291 1509h-193l183 228h202l183 -228h-193l-92 113z"/>
<glyph unicode="ŝ" horiz-adv-x="765" d="M53 1090q0 174 84 267t248 93t248 -93t84 -267v-46h-213v60q0 141 -112.5 141t-112.5 -141q0 -59 24.5 -112.5t63.5 -96.5t86 -85t93 -88t85 -98.5t63.5 -124t24.5 -155.5q0 -174 -86 -267t-250 -93t-250 93t-86 267v88h213v-102q0 -139 117 -139.5t117 139.5 q0 80 -46 150t-110 128l-130 120q-66 62 -110.5 155.5t-44.5 206.5zM291 1509h-193l183 228h202l183 -228h-193l-92 113z"/>
<glyph unicode="Ş" horiz-adv-x="765" d="M53 1090q0 174 84 267t248 93t248 -93t84 -267v-46h-213v60q0 141 -112.5 141t-112.5 -141q0 -59 24.5 -112.5t63.5 -96.5t86 -85t93 -88t85 -98.5t63.5 -124t24.5 -155.5q0 -164 -76 -256t-223 -102v-66q78 0 114.5 -21.5t36.5 -74.5q0 -76 -51 -100.5t-155 -24.5 q-197 0 -197 119v20h151v-16q0 -41 46 -41q51 0 51 49q0 53 -74 53h-20v105q-274 35 -275 356v88h213v-102q0 -139 117 -139.5t117 139.5q0 80 -46 150t-110 128l-130 120q-66 62 -110.5 155.5t-44.5 206.5z"/>
<glyph unicode="ş" horiz-adv-x="765" d="M53 1090q0 174 84 267t248 93t248 -93t84 -267v-46h-213v60q0 141 -112.5 141t-112.5 -141q0 -59 24.5 -112.5t63.5 -96.5t86 -85t93 -88t85 -98.5t63.5 -124t24.5 -155.5q0 -164 -76 -256t-223 -102v-66q78 0 114.5 -21.5t36.5 -74.5q0 -76 -51 -100.5t-155 -24.5 q-197 0 -197 119v20h151v-16q0 -41 46 -41q51 0 51 49q0 53 -74 53h-20v105q-274 35 -275 356v88h213v-102q0 -139 117 -139.5t117 139.5q0 80 -46 150t-110 128l-130 120q-66 62 -110.5 155.5t-44.5 206.5z"/>
<glyph unicode="Š" horiz-adv-x="765" d="M53 1090q0 174 84 267t248 93t248 -93t84 -267v-46h-213v60q0 141 -112.5 141t-112.5 -141q0 -59 24.5 -112.5t63.5 -96.5t86 -85t93 -88t85 -98.5t63.5 -124t24.5 -155.5q0 -174 -86 -267t-250 -93t-250 93t-86 267v88h213v-102q0 -139 117 -139.5t117 139.5 q0 80 -46 150t-110 128l-130 120q-66 62 -110.5 155.5t-44.5 206.5zM100 1737h193l90 -115l92 115h193l-183 -228h-202z"/>
<glyph unicode="š" horiz-adv-x="765" d="M53 1090q0 174 84 267t248 93t248 -93t84 -267v-46h-213v60q0 141 -112.5 141t-112.5 -141q0 -59 24.5 -112.5t63.5 -96.5t86 -85t93 -88t85 -98.5t63.5 -124t24.5 -155.5q0 -174 -86 -267t-250 -93t-250 93t-86 267v88h213v-102q0 -139 117 -139.5t117 139.5 q0 80 -46 150t-110 128l-130 120q-66 62 -110.5 155.5t-44.5 206.5zM98 1737h193l90 -115l92 115h193l-183 -228h-202z"/>
<glyph unicode="Ţ" horiz-adv-x="729" d="M180 -223v20h131v-20q0 -37 43 -37q53 0 54 53q0 57 -74 57h-23v150h-59v1229h-236v205h697v-205h-236v-1229h-63v-80q59 0 94 -31.5t35 -85.5q0 -86 -52.5 -127t-134.5 -41q-74 0 -125 37t-51 105z"/>
<glyph unicode="ţ" horiz-adv-x="729" d="M180 -223v20h131v-20q0 -37 43 -37q53 0 54 53q0 57 -74 57h-23v150h-59v1229h-236v205h697v-205h-236v-1229h-63v-80q59 0 94 -31.5t35 -85.5q0 -86 -52.5 -127t-134.5 -41q-74 0 -125 37t-51 105z"/>
<glyph unicode="Ť" horiz-adv-x="729" d="M16 1229v205h697v-205h-236v-1229h-225v1229h-236zM80 1737h192l90 -115l93 115h192l-182 -228h-203z"/>
<glyph unicode="ť" horiz-adv-x="729" d="M16 1229v205h697v-205h-236v-1229h-225v1229h-236zM80 1737h192l90 -115l93 115h192l-182 -228h-203z"/>
<glyph unicode="Ŧ" horiz-adv-x="729" d="M117 997h135v232h-236v205h697v-205h-236v-232h135v-168h-135v-829h-225v829h-135v168z"/>
<glyph unicode="ŧ" horiz-adv-x="729" d="M117 997h135v232h-236v205h697v-205h-236v-232h135v-168h-135v-829h-225v829h-135v168z"/>
<glyph unicode="Ũ" horiz-adv-x="815" d="M72 1434h225v-1106q0 -139 116.5 -139.5t116.5 139.5v1106h213v-1092q0 -174 -86 -267t-249.5 -93t-249.5 93t-86 267v1092zM492 1665q59 0 88 59l108 -75q-51 -139 -174 -140q-47 0 -102.5 26t-81.5 26q-59 0 -88 -60l-109 76q51 139 174 139q45 0 100.5 -25.5 t84.5 -25.5z"/>
<glyph unicode="ũ" horiz-adv-x="815" d="M72 1434h225v-1106q0 -139 116.5 -139.5t116.5 139.5v1106h213v-1092q0 -174 -86 -267t-249.5 -93t-249.5 93t-86 267v1092zM492 1665q59 0 88 59l108 -75q-51 -139 -174 -140q-47 0 -102.5 26t-81.5 26q-59 0 -88 -60l-109 76q51 139 174 139q45 0 100.5 -25.5 t84.5 -25.5z"/>
<glyph unicode="Ū" horiz-adv-x="815" d="M72 1434h225v-1106q0 -139 116.5 -139.5t116.5 139.5v1106h213v-1092q0 -174 -86 -267t-249.5 -93t-249.5 93t-86 267v1092zM174 1677h471v-159h-471v159z"/>
<glyph unicode="ū" horiz-adv-x="815" d="M72 1434h225v-1106q0 -139 116.5 -139.5t116.5 139.5v1106h213v-1092q0 -174 -86 -267t-249.5 -93t-249.5 93t-86 267v1092zM174 1677h471v-159h-471v159z"/>
<glyph unicode="Ŭ" horiz-adv-x="815" d="M72 1434h225v-1106q0 -139 116.5 -139.5t116.5 139.5v1106h213v-1092q0 -174 -86 -267t-249.5 -93t-249.5 93t-86 267v1092zM506 1737h133q0 -111 -59.5 -173.5t-172 -62.5t-169 62.5t-58.5 173.5h133q4 -55 26.5 -76t68.5 -21q47 0 70.5 21t27.5 76z"/>
<glyph unicode="ŭ" horiz-adv-x="815" d="M72 1434h225v-1106q0 -139 116.5 -139.5t116.5 139.5v1106h213v-1092q0 -174 -86 -267t-249.5 -93t-249.5 93t-86 267v1092zM506 1737h133q0 -111 -59.5 -173.5t-172 -62.5t-169 62.5t-58.5 173.5h133q4 -55 26.5 -76t68.5 -21q47 0 70.5 21t27.5 76z"/>
<glyph unicode="Ů" horiz-adv-x="815" d="M72 1434h225v-1106q0 -139 116.5 -139.5t116.5 139.5v1106h213v-1092q0 -174 -86 -267t-249.5 -93t-249.5 93t-86 267v1092zM246 1667q0 70 47 117t116.5 47t116.5 -47t47 -117t-47 -117t-116.5 -47t-116.5 47t-47 117zM348 1667q0 -27 17.5 -44t44 -17t44 17t17.5 44 t-17.5 44.5t-44 17.5t-44 -17.5t-17.5 -44.5z"/>
<glyph unicode="ů" horiz-adv-x="815" d="M72 1434h225v-1106q0 -139 116.5 -139.5t116.5 139.5v1106h213v-1092q0 -174 -86 -267t-249.5 -93t-249.5 93t-86 267v1092zM246 1667q0 70 47 117t116.5 47t116.5 -47t47 -117t-47 -117t-116.5 -47t-116.5 47t-47 117zM348 1667q0 -27 17.5 -44t44 -17t44 17t17.5 44 t-17.5 44.5t-44 17.5t-44 -17.5t-17.5 -44.5z"/>
<glyph unicode="Ű" horiz-adv-x="815" d="M72 1434h225v-1106q0 -139 116.5 -139.5t116.5 139.5v1106h213v-1092q0 -174 -86 -267t-249.5 -93t-249.5 93t-86 267v1092zM274 1737h205l-170 -228h-137zM541 1737h207l-173 -228h-135z"/>
<glyph unicode="ű" horiz-adv-x="815" d="M72 1434h225v-1106q0 -139 116.5 -139.5t116.5 139.5v1106h213v-1092q0 -174 -86 -267t-249.5 -93t-249.5 93t-86 267v1092zM274 1737h205l-170 -228h-137zM541 1737h207l-173 -228h-135z"/>
<glyph unicode="Ų" horiz-adv-x="815" d="M72 1434h225v-1106q0 -139 116.5 -139.5t116.5 139.5v1106h213v-1092q0 -225 -129 -326q-70 -55 -69 -135q0 -27 20.5 -42t50.5 -15q29 0 74 12v-115q-57 -23 -139 -22q-84 0 -131 32.5t-47 94.5q0 94 119 164q-35 -8 -84 -8q-164 0 -250 93t-86 267v1092z"/>
<glyph unicode="ų" horiz-adv-x="815" d="M72 1434h225v-1106q0 -139 116.5 -139.5t116.5 139.5v1106h213v-1092q0 -225 -129 -326q-70 -55 -69 -135q0 -27 20.5 -42t50.5 -15q29 0 74 12v-115q-57 -23 -139 -22q-84 0 -131 32.5t-47 94.5q0 94 119 164q-35 -8 -84 -8q-164 0 -250 93t-86 267v1092z"/>
<glyph unicode="Ŵ" horiz-adv-x="1153" d="M664 0l-82 764l-82 -764h-310l-159 1434h219l121 -1131l108 1131h217l113 -1139l117 1139h196l-159 -1434h-299zM485 1509h-192l182 228h203l182 -228h-192l-93 113z"/>
<glyph unicode="ŵ" horiz-adv-x="1153" d="M664 0l-82 764l-82 -764h-310l-159 1434h219l121 -1131l108 1131h217l113 -1139l117 1139h196l-159 -1434h-299zM485 1509h-192l182 228h203l182 -228h-192l-93 113z"/>
<glyph unicode="Ŷ" d="M293 0v475l-285 959h236l172 -654l172 654h215l-285 -959v-475h-225zM324 1509h-193l182 228h203l182 -228h-192l-92 113z"/>
<glyph unicode="ŷ" d="M293 0v475l-285 959h236l172 -654l172 654h215l-285 -959v-475h-225zM324 1509h-193l182 228h203l182 -228h-192l-92 113z"/>
<glyph unicode="Ÿ" d="M293 0v475l-285 959h236l172 -654l172 654h215l-285 -959v-475h-225zM160 1706h196v-197h-196v197zM471 1706h197v-197h-197v197z"/>
<glyph unicode="Ź" horiz-adv-x="757" d="M68 1434h639v-201l-428 -1028h428v-205h-660v201l428 1028h-407v205zM401 1737h222l-209 -228h-152z"/>
<glyph unicode="ź" horiz-adv-x="757" d="M68 1434h639v-201l-428 -1028h428v-205h-660v201l428 1028h-407v205zM401 1737h222l-209 -228h-152z"/>
<glyph unicode="Ż" horiz-adv-x="757" d="M68 1434h639v-201l-428 -1028h428v-205h-660v201l428 1028h-407v205zM283 1706h196v-197h-196v197z"/>
<glyph unicode="ż" horiz-adv-x="757" d="M68 1434h639v-201l-428 -1028h428v-205h-660v201l428 1028h-407v205zM283 1706h196v-197h-196v197z"/>
<glyph unicode="Ž" horiz-adv-x="757" d="M68 1434h639v-201l-428 -1028h428v-205h-660v201l428 1028h-407v205zM98 1737h193l90 -115l92 115h193l-183 -228h-202z"/>
<glyph unicode="ž" horiz-adv-x="757" d="M68 1434h639v-201l-428 -1028h428v-205h-660v201l428 1028h-407v205zM98 1737h193l90 -115l92 115h193l-183 -228h-202z"/>
<glyph unicode="Ǽ" horiz-adv-x="1187" d="M516 0v260h-227l-66 -260h-215l383 1434h739v-205h-389v-400h310v-204h-310v-420h389v-205h-614zM340 455h176v690zM614 1737h222l-209 -228h-152z"/>
<glyph unicode="ǽ" horiz-adv-x="1187" d="M516 0v260h-227l-66 -260h-215l383 1434h739v-205h-389v-400h310v-204h-310v-420h389v-205h-614zM340 455h176v690zM614 1737h222l-209 -228h-152z"/>
<glyph unicode="Ǿ" d="M63 344v746q0 172 88.5 266t254.5 94q123 0 204 -53l41 112l76 -26l-53 -146q74 -88 74 -247v-746q0 -172 -88.5 -266t-253.5 -94q-127 0 -205 51l-41 -111l-76 27l51 143q-72 94 -72 250zM289 1104v-590l229 633q-14 98 -112 98q-117 0 -117 -141zM406 188 q117 0 116 142v590l-231 -633q17 -99 115 -99zM426 1737h221l-209 -228h-151z"/>
<glyph unicode="ǿ" d="M63 344v746q0 172 88.5 266t254.5 94q123 0 204 -53l41 112l76 -26l-53 -146q74 -88 74 -247v-746q0 -172 -88.5 -266t-253.5 -94q-127 0 -205 51l-41 -111l-76 27l51 143q-72 94 -72 250zM289 1104v-590l229 633q-14 98 -112 98q-117 0 -117 -141zM406 188 q117 0 116 142v590l-231 -633q17 -99 115 -99zM426 1737h221l-209 -228h-151z"/>
<glyph unicode="Ș" horiz-adv-x="765" d="M356 -256h-73v188h188v-168l-88 -131h-80zM53 1090q0 174 84 267t248 93t248 -93t84 -267v-46h-213v60q0 141 -112.5 141t-112.5 -141q0 -59 24.5 -112.5t63.5 -96.5t86 -85t93 -88t85 -98.5t63.5 -124t24.5 -155.5q0 -174 -86 -267t-250 -93t-250 93t-86 267v88h213 v-102q0 -139 117 -139.5t117 139.5q0 80 -46 150t-110 128l-130 120q-66 62 -110.5 155.5t-44.5 206.5z"/>
<glyph unicode="ș" horiz-adv-x="765" d="M356 -256h-73v188h188v-168l-88 -131h-80zM53 1090q0 174 84 267t248 93t248 -93t84 -267v-46h-213v60q0 141 -112.5 141t-112.5 -141q0 -59 24.5 -112.5t63.5 -96.5t86 -85t93 -88t85 -98.5t63.5 -124t24.5 -155.5q0 -174 -86 -267t-250 -93t-250 93t-86 267v88h213 v-102q0 -139 117 -139.5t117 139.5q0 80 -46 150t-110 128l-130 120q-66 62 -110.5 155.5t-44.5 206.5z"/>
<glyph unicode="Ț" horiz-adv-x="729" d="M16 1229v205h697v-205h-236v-1229h-225v1229h-236zM344 -256h-74v188h189v-168l-88 -131h-80z"/>
<glyph unicode="ț" horiz-adv-x="729" d="M16 1229v205h697v-205h-236v-1229h-225v1229h-236zM344 -256h-74v188h189v-168l-88 -131h-80z"/>
<glyph unicode="ȷ" horiz-adv-x="524" d="M20 0v205q25 -2 78 -2q129 0 129 137v1094h226v-1078q0 -360 -324 -360q-72 0 -109 4z"/>
<glyph unicode="ˆ" horiz-adv-x="512" d="M166 1509h-193l183 228h202l183 -228h-193l-92 113z"/>
<glyph unicode="ˇ" horiz-adv-x="512" d="M-27 1737h193l90 -115l92 115h193l-183 -228h-202z"/>
<glyph unicode="˘" horiz-adv-x="512" d="M352 1737h133q0 -111 -59 -173.5t-172 -62.5t-169 62.5t-58 173.5h133q4 -55 26.5 -76t67.5 -21q47 0 70.5 21t27.5 76z"/>
<glyph unicode="˙" horiz-adv-x="512" d="M158 1706h196v-197h-196v197z"/>
<glyph unicode="˚" horiz-adv-x="512" d="M92 1667q0 70 47 117t117 47t117 -47t47 -117t-47 -117t-117 -47t-117 47t-47 117zM195 1667q0 -27 17 -44t44 -17t44 17t17 44t-17 44.5t-44 17.5t-44 -17.5t-17 -44.5z"/>
<glyph unicode="˛" horiz-adv-x="512" d="M252 8h88q-72 -55 -72 -127q0 -27 20.5 -42t51.5 -15q29 0 74 12v-115q-57 -23 -140 -22q-84 0 -131 32.5t-47 94.5q0 108 156 182z"/>
<glyph unicode="˜" horiz-adv-x="512" d="M338 1665q59 0 88 59l109 -75q-51 -139 -175 -140q-45 0 -100 26t-84 26q-59 0 -88 -60l-108 76q51 139 174 139q47 0 102 -25.5t82 -25.5z"/>
<glyph unicode="˝" horiz-adv-x="512" d="M51 1737h205l-170 -228h-137zM317 1737h207l-172 -228h-135z"/>
<glyph unicode="Ḃ" horiz-adv-x="831" d="M422 1434q174 0 254 -81t80 -249v-51q0 -221 -146 -289q168 -66 168 -307v-117q0 -166 -87 -253t-255 -87h-354v1434h340zM408 645h-101v-440h129q59 0 88 31.5t29 109.5v125q0 98 -33.5 136t-111.5 38zM416 1229h-109v-379h88q68 0 101.5 35t33.5 116v80q1 148 -114 148 zM283 1706h196v-197h-196v197z"/>
<glyph unicode="ḃ" horiz-adv-x="831" d="M422 1434q174 0 254 -81t80 -249v-51q0 -221 -146 -289q168 -66 168 -307v-117q0 -166 -87 -253t-255 -87h-354v1434h340zM408 645h-101v-440h129q59 0 88 31.5t29 109.5v125q0 98 -33.5 136t-111.5 38zM416 1229h-109v-379h88q68 0 101.5 35t33.5 116v80q1 148 -114 148 zM283 1706h196v-197h-196v197z"/>
<glyph unicode="Ḋ" horiz-adv-x="835" d="M82 0v1434h356q336 0 336 -355v-725q0 -354 -336 -354h-356zM434 1229h-127v-1024h127q115 0 115 139v746q0 139 -115 139zM299 1706h197v-197h-197v197z"/>
<glyph unicode="ḋ" horiz-adv-x="835" d="M82 0v1434h356q336 0 336 -355v-725q0 -354 -336 -354h-356zM434 1229h-127v-1024h127q115 0 115 139v746q0 139 -115 139zM299 1706h197v-197h-197v197z"/>
<glyph unicode="Ḟ" horiz-adv-x="704" d="M307 1229v-432h291v-205h-291v-592h-225v1434h596v-205h-371zM274 1706h197v-197h-197v197z"/>
<glyph unicode="ḟ" horiz-adv-x="704" d="M307 1229v-432h291v-205h-291v-592h-225v1434h596v-205h-371zM274 1706h197v-197h-197v197z"/>
<glyph unicode="Ṁ" horiz-adv-x="1107" d="M393 1434l166 -1018l154 1018h313v-1434h-213v1028l-156 -1028h-213l-168 1014v-1014h-196v1434h313zM455 1706h196v-197h-196v197z"/>
<glyph unicode="ṁ" horiz-adv-x="1107" d="M393 1434l166 -1018l154 1018h313v-1434h-213v1028l-156 -1028h-213l-168 1014v-1014h-196v1434h313zM455 1706h196v-197h-196v197z"/>
<glyph unicode="Ṗ" horiz-adv-x="772" d="M414 1434q336 0 336 -355v-186q0 -354 -336 -354h-107v-539h-225v1434h332zM414 1229h-107v-486h107q55 0 82.5 31t27.5 105v215q0 74 -27.5 104.5t-82.5 30.5zM291 1706h196v-197h-196v197z"/>
<glyph unicode="ṗ" horiz-adv-x="772" d="M414 1434q336 0 336 -355v-186q0 -354 -336 -354h-107v-539h-225v1434h332zM414 1229h-107v-486h107q55 0 82.5 31t27.5 105v215q0 74 -27.5 104.5t-82.5 30.5zM291 1706h196v-197h-196v197z"/>
<glyph unicode="Ṡ" horiz-adv-x="765" d="M53 1090q0 174 84 267t248 93t248 -93t84 -267v-46h-213v60q0 141 -112.5 141t-112.5 -141q0 -59 24.5 -112.5t63.5 -96.5t86 -85t93 -88t85 -98.5t63.5 -124t24.5 -155.5q0 -174 -86 -267t-250 -93t-250 93t-86 267v88h213v-102q0 -139 117 -139.5t117 139.5 q0 80 -46 150t-110 128l-130 120q-66 62 -110.5 155.5t-44.5 206.5zM285 1706h196v-197h-196v197z"/>
<glyph unicode="ṡ" horiz-adv-x="765" d="M53 1090q0 174 84 267t248 93t248 -93t84 -267v-46h-213v60q0 141 -112.5 141t-112.5 -141q0 -59 24.5 -112.5t63.5 -96.5t86 -85t93 -88t85 -98.5t63.5 -124t24.5 -155.5q0 -174 -86 -267t-250 -93t-250 93t-86 267v88h213v-102q0 -139 117 -139.5t117 139.5 q0 80 -46 150t-110 128l-130 120q-66 62 -110.5 155.5t-44.5 206.5zM285 1706h196v-197h-196v197z"/>
<glyph unicode="Ṫ" horiz-adv-x="729" d="M16 1229v205h697v-205h-236v-1229h-225v1229h-236zM266 1706h197v-197h-197v197z"/>
<glyph unicode="ṫ" horiz-adv-x="729" d="M16 1229v205h697v-205h-236v-1229h-225v1229h-236zM266 1706h197v-197h-197v197z"/>
<glyph unicode="Ẁ" horiz-adv-x="1153" d="M664 0l-82 764l-82 -764h-310l-159 1434h219l121 -1131l108 1131h217l113 -1139l117 1139h196l-159 -1434h-299zM330 1737h231l139 -228h-161z"/>
<glyph unicode="ẁ" horiz-adv-x="1153" d="M664 0l-82 764l-82 -764h-310l-159 1434h219l121 -1131l108 1131h217l113 -1139l117 1139h196l-159 -1434h-299zM330 1737h231l139 -228h-161z"/>
<glyph unicode="Ẃ" horiz-adv-x="1153" d="M664 0l-82 764l-82 -764h-310l-159 1434h219l121 -1131l108 1131h217l113 -1139l117 1139h196l-159 -1434h-299zM596 1737h221l-209 -228h-151z"/>
<glyph unicode="ẃ" horiz-adv-x="1153" d="M664 0l-82 764l-82 -764h-310l-159 1434h219l121 -1131l108 1131h217l113 -1139l117 1139h196l-159 -1434h-299zM596 1737h221l-209 -228h-151z"/>
<glyph unicode="Ẅ" horiz-adv-x="1153" d="M664 0l-82 764l-82 -764h-310l-159 1434h219l121 -1131l108 1131h217l113 -1139l117 1139h196l-159 -1434h-299zM322 1706h196v-197h-196v197zM633 1706h196v-197h-196v197z"/>
<glyph unicode="ẅ" horiz-adv-x="1153" d="M664 0l-82 764l-82 -764h-310l-159 1434h219l121 -1131l108 1131h217l113 -1139l117 1139h196l-159 -1434h-299zM322 1706h196v-197h-196v197zM633 1706h196v-197h-196v197z"/>
<glyph unicode="Ỳ" d="M293 0v475l-285 959h236l172 -654l172 654h215l-285 -959v-475h-225zM168 1737h231l140 -228h-162z"/>
<glyph unicode="ỳ" d="M293 0v475l-285 959h236l172 -654l172 654h215l-285 -959v-475h-225zM168 1737h231l140 -228h-162z"/>
<glyph unicode=" " horiz-adv-x="915"/>
<glyph unicode=" " horiz-adv-x="1831"/>
<glyph unicode=" " horiz-adv-x="915"/>
<glyph unicode=" " horiz-adv-x="1831"/>
<glyph unicode=" " horiz-adv-x="610"/>
<glyph unicode=" " horiz-adv-x="457"/>
<glyph unicode=" " horiz-adv-x="305"/>
<glyph unicode=" " horiz-adv-x="305"/>
<glyph unicode=" " horiz-adv-x="228"/>
<glyph unicode=" " horiz-adv-x="366"/>
<glyph unicode=" " horiz-adv-x="101"/>
<glyph unicode="‐" horiz-adv-x="552" d="M72 614v205h409v-205h-409z"/>
<glyph unicode="‑" horiz-adv-x="552" d="M72 614v205h409v-205h-409z"/>
<glyph unicode="‒" d="M0 625v184h811v-184h-811z"/>
<glyph unicode="–" horiz-adv-x="1024" d="M0 625v184h1024v-184h-1024z"/>
<glyph unicode="—" horiz-adv-x="2048" d="M0 625v184h2048v-184h-2048z"/>
<glyph unicode="‘" horiz-adv-x="380" d="M213 1229h86v-217h-217v194l98 228h92z"/>
<glyph unicode="’" horiz-adv-x="380" d="M168 1217h-86v217h217v-195l-98 -227h-92z"/>
<glyph unicode="‚" horiz-adv-x="380" d="M168 0h-86v217h217v-194l-98 -228h-92z"/>
<glyph unicode="“" horiz-adv-x="679" d="M213 1229h86v-217h-217v194l98 228h92zM512 1229h86v-217h-217v194l98 228h92z"/>
<glyph unicode="”" horiz-adv-x="679" d="M168 1217h-86v217h217v-195l-98 -227h-92zM467 1217h-86v217h217v-195l-98 -227h-92z"/>
<glyph unicode="„" horiz-adv-x="679" d="M168 0h-86v217h217v-194l-98 -228h-92zM467 0h-86v217h217v-194l-98 -228h-92z"/>
<glyph unicode="†" d="M51 901v174h262v359h185v-359h262v-174h-262v-1034h-185v1034h-262z"/>
<glyph unicode="‡" d="M51 901v174h262v359h185v-359h262v-174h-262v-502h262v-174h-262v-358h-185v358h-262v174h262v502h-262z"/>
<glyph unicode="•" d="M121 717q0 119 83 201.5t201.5 82.5t201.5 -82.5t83 -201.5t-83 -202t-201.5 -83t-201.5 83t-83 202z"/>
<glyph unicode="…" horiz-adv-x="978" d="M82 217h217v-217h-217v217zM381 217h217v-217h-217v217zM680 217h217v-217h-217v217z"/>
<glyph unicode=" " horiz-adv-x="366"/>
<glyph unicode="‰" horiz-adv-x="1808" d="M213 1225v-492q0 -90 73.5 -90t73.5 90v492q0 90 -73.5 90t-73.5 -90zM70 743v471q0 111 55 170.5t161.5 59.5t162 -59.5t55.5 -170.5v-471q0 -111 -55.5 -170t-162 -59t-161.5 59t-55 170zM287 0l565 1434h133l-565 -1434h-133zM924 700v-491q0 -90 73.5 -90t73.5 90 v491q0 90 -73.5 90t-73.5 -90zM780 219v471q0 111 55.5 170.5t162 59.5t161.5 -59.5t55 -170.5v-471q0 -111 -55 -170t-161.5 -59t-162 59t-55.5 170zM1448 700v-491q0 -90 73.5 -90t73.5 90v491q0 90 -73.5 90t-73.5 -90zM1305 219v471q0 111 55 170.5t161.5 59.5 t162 -59.5t55.5 -170.5v-471q0 -111 -55.5 -170t-162 -59t-161.5 59t-55 170z"/>
<glyph unicode="‹" horiz-adv-x="401" d="M156 1264h213l-121 -545l121 -578h-213l-123 578z"/>
<glyph unicode="›" horiz-adv-x="401" d="M33 1264h213l123 -545l-123 -578h-213l121 578z"/>
<glyph unicode="⁄" horiz-adv-x="137" d="M-281 0l566 1434h133l-565 -1434h-134z"/>
<glyph unicode=" " horiz-adv-x="457"/>
<glyph unicode="⁰" horiz-adv-x="573" d="M213 1419v-491q0 -90 73.5 -90t73.5 90v491q0 90 -73.5 90t-73.5 -90zM70 938v471q0 111 55 170t161.5 59t162 -59t55.5 -170v-471q0 -111 -55.5 -170t-162 -59t-161.5 59t-55 170z"/>
<glyph unicode="⁴" horiz-adv-x="573" d="M49 883v131l260 614h156v-614h67v-131h-67v-164h-141v164h-275zM178 1014h146v336z"/>
<glyph unicode="⁵" horiz-adv-x="573" d="M76 1010h135v-84q0 -88 73.5 -88t73.5 88v198q0 90 -73.5 90t-73.5 -90v-26h-135l26 528h377v-131h-250l-10 -217q39 68 125 68q158 0 158 -209v-203q0 -111 -54.5 -170t-159 -59t-158.5 59t-54 170v76z"/>
<glyph unicode="⁶" horiz-adv-x="573" d="M74 938v465q0 236 219 235q104 0 158.5 -59t54.5 -170v-23h-135v33q0 90 -74 90q-41 0 -60.5 -24.5t-19.5 -87.5v-166q39 80 133 80q158 0 158 -207v-166q0 -111 -56.5 -170t-161 -59t-160.5 59t-56 170zM291 1182q-74 0 -74 -90v-164q0 -88 74 -88t74 88v164 q0 90 -74 90z"/>
<glyph unicode="⁷" horiz-adv-x="573" d="M72 1628h430v-125l-211 -784h-144l209 780h-284v129z"/>
<glyph unicode="⁸" horiz-adv-x="573" d="M510 938q0 -109 -58.5 -169t-165 -60t-165 60t-58.5 169v70q0 141 89 190q-88 49 -89 182v29q0 109 58.5 169t165 60t165 -60t58.5 -169v-29q0 -133 -88 -182q88 -49 88 -190v-70zM207 940q0 -102 80 -102t80 102v86q0 102 -80 102t-80 -102v-86zM207 1405v-51 q0 -96 80 -96t80 96v51q0 104 -80 104t-80 -104z"/>
<glyph unicode="⁹" horiz-adv-x="573" d="M500 1409v-465q0 -236 -219 -235q-104 0 -158.5 59t-54.5 170v23h135v-33q0 -90 73 -90q41 0 60.5 24.5t19.5 87.5v166q-39 -80 -133 -80q-158 0 -157 207v166q0 111 56 170t160.5 59t161 -59t56.5 -170zM282.5 1165q73.5 0 73.5 90v164q0 88 -73.5 88t-73.5 -88v-164 q0 -90 73.5 -90z"/>
<glyph unicode="₀" horiz-adv-x="573" d="M213 567v-491q0 -90 73.5 -90t73.5 90v491q0 90 -73.5 90t-73.5 -90zM70 86v471q0 111 55 170t161.5 59t162 -59t55.5 -170v-471q0 -111 -55.5 -170t-162 -59t-161.5 59t-55 170z"/>
<glyph unicode="₁" horiz-adv-x="409" d="M51 561v101q74 0 105.5 28.5t54.5 85.5h94v-909h-143v694h-111z"/>
<glyph unicode="₂" horiz-adv-x="573" d="M369 557q0 102 -74 102t-74 -90v-96h-135v88q0 227 213 227t213 -227q0 -100 -48 -191t-104.5 -144.5t-98.5 -115t-32 -114.5h271v-129h-414v110q0 74 28.5 136.5t70.5 108.5l84 92q42 46 71 108.5t29 134.5z"/>
<glyph unicode="₃" horiz-adv-x="573" d="M356 90v70q0 63 -21.5 88.5t-70.5 25.5h-49v129h55q86 0 86 99v51q0 104 -73.5 104t-73.5 -90v-57h-135v47q0 229 213 229t213 -229v-22q0 -145 -101 -187q100 -43 101 -190v-72q0 -229 -213 -229t-213 229v74h135v-84q0 -90 73.5 -90t73.5 104z"/>
<glyph unicode="₄" horiz-adv-x="573" d="M49 31v131l260 614h156v-614h67v-131h-67v-164h-141v164h-275zM178 162h146v336z"/>
<glyph unicode="₅" horiz-adv-x="573" d="M76 158h135v-84q0 -88 73.5 -88t73.5 88v198q0 90 -73.5 90t-73.5 -90v-26h-135l26 528h377v-131h-250l-10 -217q39 68 125 68q158 0 158 -209v-203q0 -111 -54.5 -170t-159 -59t-158.5 59t-54 170v76z"/>
<glyph unicode="₆" horiz-adv-x="573" d="M74 86v465q0 236 219 235q104 0 158.5 -59t54.5 -170v-22h-135v32q0 90 -74 90q-41 0 -60.5 -24.5t-19.5 -87.5v-166q39 80 133 80q158 0 158 -207v-166q0 -111 -56.5 -170t-161 -59t-160.5 59t-56 170zM291 330q-74 0 -74 -90v-164q0 -88 74 -88t74 88v164q0 90 -74 90z "/>
<glyph unicode="₇" horiz-adv-x="573" d="M72 776h430v-125l-211 -784h-144l209 780h-284v129z"/>
<glyph unicode="₈" horiz-adv-x="573" d="M510 86q0 -109 -58.5 -169t-165 -60t-165 60t-58.5 169v70q0 141 89 190q-88 49 -89 182v29q0 109 58.5 169t165 60t165 -60t58.5 -169v-29q0 -133 -88 -182q88 -49 88 -190v-70zM207 88q0 -102 80 -102t80 102v86q0 102 -80 102t-80 -102v-86zM207 553v-51q0 -96 80 -96 t80 96v51q0 104 -80 104t-80 -104z"/>
<glyph unicode="₉" horiz-adv-x="573" d="M500 557v-465q0 -236 -219 -235q-104 0 -158.5 59t-54.5 170v23h135v-33q0 -90 73 -90q41 0 60.5 24.5t19.5 87.5v166q-39 -80 -133 -80q-158 0 -157 207v166q0 111 56 170t160.5 59t161 -59t56.5 -170zM282.5 313q73.5 0 73.5 90v164q0 88 -73.5 88t-73.5 -88v-164 q0 -90 73.5 -90z"/>
<glyph unicode="€" d="M39 778v113h57v199q0 174 83 267t247 93t247 -93t83 -267v-105h-213v119q0 141 -110.5 141t-110.5 -141v-213h315v-113h-315v-112h315v-113h-315v-223q0 -139 110.5 -139.5t110.5 139.5v129h213v-115q0 -174 -83 -267t-247 -93t-247 93t-83 267v209h-57v113h57v112h-57z "/>
<glyph unicode="₹" d="M53 1124h361q0 74 -42 105t-130 31h-189v174h705v-174h-172q39 -57 51 -136h121v-174h-121q-12 -143 -110.5 -226t-233.5 -83l477 -641h-242l-475 641v174h189q88 0 130 31t42 104h-361v174z"/>
<glyph unicode="℗" horiz-adv-x="1507" d="M41 716.5q0 317.5 204 525.5t509 208t508.5 -208t203.5 -525.5t-203.5 -525t-508.5 -207.5t-509 207.5t-204 525zM188 717q0 -256 161 -423t404.5 -167t404.5 167t161 423t-161 423t-404.5 167t-404.5 -167t-161 -423zM563 260v877h238q231 0 231 -230v-114 q0 -229 -231 -230h-82v-303h-156zM877 811v78q0 104 -84 104h-74v-286h74q84 0 84 104z"/>
<glyph unicode="™" horiz-adv-x="1200" d="M748 1434l106 -512l96 512h199v-729h-135v518l-96 -518h-136l-108 514v-514h-125v729h199zM20 1303v131h443v-131h-150v-598h-143v598h-150z"/>
<glyph unicode="⅓" horiz-adv-x="1284" d="M133 1219v100q74 0 105.5 28.5t54.5 86.5h94v-910h-143v695h-111zM1067 223v70q0 63 -21.5 89t-70.5 26h-49v129h55q86 0 86 98v51q0 104 -73.5 104.5t-73.5 -90.5v-57h-136v47q0 229 213 229.5t213 -229.5v-22q0 -145 -100 -187q100 -43 100 -190v-72q0 -229 -213 -229 t-213 229v74h136v-84q0 -90 73.5 -90t73.5 104zM266 0l565 1434h134l-566 -1434h-133z"/>
<glyph unicode="⅔" horiz-adv-x="1284" d="M369 1212q0 102 -74 102.5t-74 -89.5v-97h-135v89q0 227 213 227t213 -227q0 -100 -48 -191.5t-104.5 -145t-98.5 -114.5t-32 -115h271v-129h-414v111q0 74 28 136q29 63 71 109l84 92q42 46 71 108t29 134zM313 0l566 1434h133l-566 -1434h-133zM1067 223v70 q0 63 -21.5 89t-70.5 26h-49v129h55q86 0 86 98v51q0 104 -73.5 104.5t-73.5 -90.5v-57h-136v47q0 229 213 229.5t213 -229.5v-22q0 -145 -100 -187q100 -43 100 -190v-72q0 -229 -213 -229t-213 229v74h136v-84q0 -90 73.5 -90t73.5 104z"/>
<glyph unicode="⅛" horiz-adv-x="1284" d="M133 1219v100q74 0 105.5 28.5t54.5 86.5h94v-910h-143v695h-111zM1221 219q0 -109 -58.5 -169t-165 -60t-165 60.5t-58.5 168.5v70q0 141 88 190q-88 49 -88 183v28q0 109 58.5 169.5t165 60.5t165 -60.5t58.5 -169.5v-28q0 -133 -88 -183q88 -49 88 -190v-70zM918 221 q0 -102 79.5 -102t79.5 102v86q0 102 -79.5 102.5t-79.5 -102.5v-86zM918 686v-51q0 -96 79.5 -95.5t79.5 95.5v51q0 104 -79.5 104t-79.5 -104zM266 0l565 1434h134l-566 -1434h-133z"/>
<glyph unicode="⅜" horiz-adv-x="1284" d="M356 748v69q0 63 -21.5 89t-70.5 26h-49v129h55q86 0 86 98v51q0 104 -73.5 104.5t-73.5 -89.5v-58h-135v47q0 229 213 229.5t213 -229.5v-22q0 -145 -101 -186q100 -43 101 -191v-72q0 -229 -213 -229t-213 229v74h135v-84q0 -90 73.5 -89.5t73.5 104.5zM293 0l565 1434 h133l-565 -1434h-133zM1221 219q0 -109 -58.5 -169t-165 -60t-165 60.5t-58.5 168.5v70q0 141 88 190q-88 49 -88 183v28q0 109 58.5 169.5t165 60.5t165 -60.5t58.5 -169.5v-28q0 -133 -88 -183q88 -49 88 -190v-70zM918 221q0 -102 79.5 -102t79.5 102v86 q0 102 -79.5 102.5t-79.5 -102.5v-86zM918 686v-51q0 -96 79.5 -95.5t79.5 95.5v51q0 104 -79.5 104t-79.5 -104z"/>
<glyph unicode="⅝" horiz-adv-x="1284" d="M76 815h135v-84q0 -88 73.5 -88t73.5 88v199q0 90 -73.5 90t-73.5 -90v-27h-135l26 529h377v-132h-250l-10 -217q39 68 125 68q158 0 158 -209v-203q0 -111 -54.5 -170t-159 -59t-158.5 59.5t-54 169.5v76zM293 0l565 1434h133l-565 -1434h-133zM1221 219 q0 -109 -58.5 -169t-165 -60t-165 60.5t-58.5 168.5v70q0 141 88 190q-88 49 -88 183v28q0 109 58.5 169.5t165 60.5t165 -60.5t58.5 -169.5v-28q0 -133 -88 -183q88 -49 88 -190v-70zM918 221q0 -102 79.5 -102t79.5 102v86q0 102 -79.5 102.5t-79.5 -102.5v-86zM918 686 v-51q0 -96 79.5 -95.5t79.5 95.5v51q0 104 -79.5 104t-79.5 -104z"/>
<glyph unicode="⅞" horiz-adv-x="1284" d="M72 1434h430v-125l-211 -785h-144l209 781h-284v129zM231 0l566 1434h133l-565 -1434h-134zM1221 219q0 -109 -58.5 -169t-165 -60t-165 60.5t-58.5 168.5v70q0 141 88 190q-88 49 -88 183v28q0 109 58.5 169.5t165 60.5t165 -60.5t58.5 -169.5v-28q0 -133 -88 -183 q88 -49 88 -190v-70zM918 221q0 -102 79.5 -102t79.5 102v86q0 102 -79.5 102.5t-79.5 -102.5v-86zM918 686v-51q0 -96 79.5 -95.5t79.5 95.5v51q0 104 -79.5 104t-79.5 -104z"/>
<glyph unicode="−" d="M51 797h709v-160h-709v160z"/>
<glyph unicode="∞" horiz-adv-x="1501" d="M707 649q-25 0 -48.5 25.5t-29.5 25.5t-22.5 -4t-28.5 -4q-16 0 -29.5 16.5t-13.5 34.5q0 45 16 72q-14 -14 -31.5 -74.5t-52.5 -85.5q-39 -23 -39 -82l45 -69q0 -8 -6 -8q-14 0 -25 10q27 -139 99 -213h-113q-72 233 -72 463q0 215 83 351t278 136q389 0 389 -520 q0 -154 -51 -430h-150q109 96 127 239q-8 -16 -26 -16q-6 0 -6.5 4t4.5 6q18 12 24 22.5t8 47.5q-8 -12 -30 -12q-2 0 -21.5 -9.5t-32.5 -9.5q-29 0 -82 7.5t-143 7.5q-45 0 -107.5 -12.5t-78.5 -12.5q-10 0 -26.5 4t-22.5 4q-57 0 -58 25q0 20 76 37.5t152 17.5q10 0 24 -1 t24.5 -1t32 4t29.5 4q229 0 260 -41q-2 33 -28.5 59.5t-61.5 26.5q-12 0 -12 15v49q0 68 -33 69q8 -14 8 -34q0 -37 -22.5 -66t-55.5 -29q-8 0 -21 4l-13 5q-2 0 -29.5 -29t-56.5 -29zM1501 596v-303q-45 98 -141 230t-137 132q6 -86 6 -100q0 -92 -31 -262h-86 q33 213 33 407q0 653 -436 654q-109 0 -188 -54.5t-121 -148.5t-61.5 -199.5t-19.5 -228.5q0 -252 60 -430h-96q-39 137 -39 377q-35 -18 -81 -89t-100.5 -173.5t-62.5 -114.5v303q23 55 68 110.5t102 109.5t61 58q6 147 55.5 276.5t155 220.5t246.5 91q137 0 236.5 -46 t157 -131t87 -178t45.5 -216q45 -10 139.5 -98t147.5 -197zM707 1030q-6 6 -7 12q0 4 5 5q2 0 12 -9.5t30.5 -17.5t45.5 -8q33 0 59.5 8t39.5 17l13 10q8 0 8 -5l-16 -16q49 0 107 -22q-59 164 -285 163q-113 0 -188.5 -67.5t-102.5 -173.5q76 41 84 80q-12 8 -12 14 q0 8 6 8l4 -3q4 -3 13 -8t20.5 -10.5t28 -8.5t34.5 -3q50 0 101 35zM760 881q0 20 -9.5 57t-19.5 37q-20 0 -38.5 -80t-28.5 -80q-6 0 -19.5 6t-23.5 6q-27 0 -43.5 -21.5t-16.5 -49.5q0 -25 23 -29q23 0 37 13.5t18 13.5t24.5 -28t41.5 -28q29 0 51 21.5t24 21.5 q6 0 20.5 -7t18.5 -7q20 0 36.5 22.5t16.5 49.5q0 20 -12 36.5t-33 16.5q-14 0 -29.5 -13.5t-23.5 -13.5q-14 0 -14 27v29zM1038 813q-18 137 -18 139l-10 6q0 -43 -37 -65.5t-84 -22.5q-43 0 -76 26t-33 60q0 2 2 8.5t2 10.5q-25 4 -30 8q12 -18 20 -49t11 -49.5t10 -18.5 q14 4 30 4q39 0 64 -28q70 0 69 -105q0 -6 16.5 -14t38 -26.5t31.5 -45.5q0 2 -6 162zM784 635q-2 0 -16 -2t-31.5 -4t-28 -2t-26.5 3t-23 3q-31 0 -73.5 -8.5t-71.5 -18.5t-29 -16q0 -20 41 -21q49 0 110.5 13.5t90.5 13.5q39 0 118 -7t107 -7q10 0 19.5 4t15.5 8t6 6 q0 10 -74 22.5t-135 12.5zM547 846q-37 0 -63.5 20.5t-30.5 42.5q-8 -4 -31 -10q-8 -33 -8 -88q0 -102 6 -160q8 12 45 45t41 64q10 76 78 84q25 10 47 10q10 0 17 18l20 50q12 32 32 57l-26 -8q-2 -49 -38 -87t-89 -38zM858 952q-27 0 -33 27q-10 0 -17 -11.5t-7 -19.5 q0 -20 30.5 -34.5t63.5 -14.5q29 0 59.5 17.5t30.5 44.5q0 16 -29.5 25t-58.5 9q-10 -43 -39 -43zM547 874q29 0 61.5 23t32.5 49q0 12 -2 19h-18q-23 0 -37 2q-10 -29 -37 -29q-20 0 -31 10q-8 -8 -37 -24q9 -50 68 -50zM545 590q-4 0 -4 6q0 25 219 25q190 0 190 -17 q0 -6 -6 -6q-72 10 -180 10q-129 0 -219 -18zM625 537q0 20 129 20q63 0 63 -16q0 -6 -4 -6q-8 0 -20.5 4t-20.5 4q-23 0 -53.5 -1t-40.5 -1q-8 0 -23.5 -6.5t-21.5 -6.5q-8 1 -8 9zM854 969q18 0 18 20v6q-2 0 -32 -12q0 -14 14 -14zM545 954q14 0 20 19q-12 2 -22 8 q0 -8 -13 -20q3 -7 15 -7zM662 70l-11 98l-16 -168h-43l29 256h51l10 -123l39 123h53l-26 -256h-43l16 168l-31 -98h-28zM133 45q-2 -45 -43 -45h-76l25 256h76q41 0 37 -43zM573 90q-2 -25 -20 -35l16 -55h-43l-14 47h-12l-6 -47h-48l27 256h76q41 0 37 -43zM373 0l8 47 h-29l-6 -47h-43l23 213q2 43 45 43h35q41 0 36 -43l-22 -213h-47zM848 0l6 47h-27l-6 -47h-47l23 213q2 43 49 43h31q45 0 41 -43l-27 -213h-43zM1208 0l31 256h72q45 0 41 -43l-13 -123q-4 -43 -49 -43h-28l-7 -47h-47zM229 0l7 47h-27l-6 -47h-47l30 256h43l-18 -170h27 l18 170h47l-29 -256h-45zM1092 256h47l-19 -162q0 -8 8 -8h11q10 0 10 8l16 162h43l-16 -166q-2 -39 -39 -43l-18 -47h-48l19 47q-33 4 -31 43zM1042 217l-22 -217h-47l22 217h-26l4 39h100l-4 -39h-27zM106 209q2 8 -6 8h-18l-21 -180h23q6 0 6 8zM1303 209q2 8 -7 8h-18 l-14 -131h18q10 0 10 8zM354 86h29l14 123q0 8 -6 8h-12q-12 0 -12 -8zM541 209q0 8 -6 8h-19l-14 -131h18q10 0 10 8zM829 86h27l12 123q0 8 -6 8h-10q-10 0 -10 -8zM1456 117l-4 -37h-45l-4 -43h57l-4 -37h-100l26 256h101l-4 -39h-58l-10 -100h45z"/>
<glyph unicode="≈" d="M123 408l-107 102q70 104 126.5 144t117.5 40q59 0 155.5 -62.5t137.5 -62.5q33 0 58.5 23.5t76.5 93.5l107 -111q-70 -102 -125.5 -139t-118.5 -37q-59 0 -155.5 62.5t-137.5 62.5q-35 0 -60.5 -23t-74.5 -93zM123 748l-107 102q70 104 126.5 144t117.5 40 q59 0 155.5 -62.5t137.5 -62.5q33 0 58.5 23.5t76.5 93.5l107 -111q-70 -102 -125.5 -139t-118.5 -37q-59 0 -155.5 62.5t-137.5 62.5q-35 0 -60.5 -23t-74.5 -93z"/>
<glyph unicode="" horiz-adv-x="1435" d="M0 1435h1435v-1435h-1435v1435z"/>
<glyph horiz-adv-x="512" d="M236 -256h-74v188h188v-168l-88 -131h-80z"/>
<glyph d="M289 1104v-774q0 -141 116.5 -141.5t116.5 141.5v774q0 141 -116.5 141t-116.5 -141zM63 344v746q0 172 88.5 266t254 94t254 -94t88.5 -266v-746q0 -172 -88.5 -266t-254 -94t-254 94t-88.5 266z"/>
<glyph horiz-adv-x="512" d="M31 1094v159q82 0 134 28t71.5 60.5t42.5 92.5h151v-1434h-225v1094h-174z"/>
<glyph horiz-adv-x="755" d="M500 1081q0 92 -30 128t-87 36q-117 0 -117 -141v-154h-213v140q0 174 86 267t250 93t250 -93t86 -267q0 -131 -50 -247t-120 -198t-137.5 -153.5t-109.5 -144.5t-29 -142h426v-205h-652v176q0 117 46 214q45 97 111 170l132 144q66 70 112 166t46 211z"/>
<glyph horiz-adv-x="782" d="M502 1001v80q0 92 -30 128t-87 36q-117 0 -117 -141v-92h-213v78q0 174 86 267t250 93t250 -93t86 -267v-37q0 -229 -158 -295q158 -70 158 -301v-113q0 -174 -86 -267t-250 -93t-250 93t-86 267v119h213v-133q0 -141 117 -142q57 0 87 36t30 126v113q0 98 -35 140 t-113 42h-75v205h88q68 0 101.5 34.5t33.5 116.5z"/>
<glyph horiz-adv-x="813" d="M29 260v205l409 969h246v-969h107v-205h-107v-260h-225v260h-430zM236 465h223v530z"/>
<glyph horiz-adv-x="784" d="M57 463h213v-133q0 -139 117 -139.5t117 139.5v315q0 141 -117 141t-117 -141v-43h-213l41 832h594v-205h-391l-18 -342q63 104 196 104q250 0 250 -327v-320q0 -174 -86 -267t-250 -93t-250 93t-86 267v119z"/>
<glyph horiz-adv-x="802" d="M63 344v733q0 373 345 373q164 0 249.5 -93t85.5 -267v-37h-213v51q0 141 -116 141q-63 0 -94 -39t-31 -137v-262q59 127 209 127q250 0 250 -328v-262q0 -172 -88.5 -266t-254 -94t-254 94t-88.5 266zM405.5 729q-116.5 0 -116.5 -141v-258q0 -139 116.5 -139.5 t116.5 139.5v258q0 141 -116.5 141z"/>
<glyph horiz-adv-x="696" d="M20 1434h656v-197l-311 -1237h-226l312 1237v-8h-431v205z"/>
<glyph horiz-adv-x="815" d="M760 344q0 -172 -91 -266t-261 -94t-261.5 94t-91.5 266v113q0 221 140 299q-139 76 -140 288v46q0 172 91.5 266t261.5 94t261 -94t91 -266v-46q0 -211 -139 -288q139 -78 139 -299v-113zM281 350q0 -162 127 -162q125 0 127 162v133q0 162 -127 162t-127 -162v-133z M281 1081v-80q0 -152 127 -151.5t127 151.5v80q0 164 -127 164t-127 -164z"/>
<glyph horiz-adv-x="802" d="M739 1090v-734q0 -373 -344 -372q-164 0 -250 93t-86 267v37h213v-51q0 -141 117 -142q63 0 94 39t31 138v262q-59 -127 -209 -127q-250 0 -250 327v263q0 172 88 266t254 94t254 -94t88 -266zM397.5 705q116.5 0 116.5 141v258q0 139 -116.5 139t-116.5 -139v-258 q0 -141 116.5 -141z"/>
</font>
</defs>
</svg>
